<?xml version="1.0" standalone="no"?>
<!DOCTYPE svg PUBLIC "-//W3C//DTD SVG 1.1//EN" "http://www.w3.org/Graphics/SVG/1.1/DTD/svg11.dtd">
<svg xmlns="http://www.w3.org/2000/svg">
<defs >
<font id="PlayfairDisplay" horiz-adv-x="612" ><font-face
    font-family="Playfair Display"
    units-per-em="1000"
    panose-1="0 0 8 0 0 0 0 0 0 0"
    ascent="1082"
    descent="-251"
    alphabetic="0" />
<glyph unicode=" " glyph-name="space" horiz-adv-x="255" />
<glyph unicode="!" glyph-name="exclam" horiz-adv-x="314" d="M137 271T144 339T158 508Q165 610 167 626Q170 689 195 735T271 782Q306 782 323 761T338 702Q334 659 314 609T251 472Q207 381 181 322T137 196L119 199Q137 271 144 339ZM24 86T52 113T121 140Q153
140 171 124T189 79Q189 43 160 15T91 -14Q59 -14 42 2T24 46Q24 86 52 113Z" />
<glyph unicode="&quot;" glyph-name="quotedbl" horiz-adv-x="391" d="M275 658T263 635T222 570Q188 520 172 488H158Q157 534 149 583Q144 615 144 635L145 650Q147 684 169 707T224 730Q247 730 260 718T275 683Q275 658 263 635ZM437 658T425 635T384 570Q350
520 334 488H320Q319 534 311 583Q306 615 306 635L307 650Q309 684 331 707T386 730Q409 730 422 718T437 683Q437 658 425 635Z" />
<glyph unicode="#" glyph-name="numbersign" horiz-adv-x="625" d="M474 434L397 267H540L530 247H388L320 101H296L364 247H201L133 101H109L177 247H30L39 267H186L263 434H117L125 454H272L341 602H365L296 454H459L528 602H552L483 454H626L618 434H474ZM450
434H287L210 267H373L450 434Z" />
<glyph unicode="$" glyph-name="dollar" horiz-adv-x="610" d="M584 652T602 622T620 554Q620 511 599 481T543 451Q510 451 491 474T472 536Q472 571 485 601T518 663Q497 680 464 690L389 418Q438 375 468 345T518 277T539 198Q539 125 498 79T396 11T269 -14L236
-132H214L247 -14Q208 -14 178 -8L144 -132H122L158 -4Q112 9 69 37Q38 57 21 87T3 154Q3 197 24 227T80 257Q113 257 132 234T152 172Q152 137 139 107T105 45Q128 28 163 17L245 309Q189 361 158 407T127 510Q127 581 161 628T247 697T359 722L392 840H414L381
722Q422 720 449 715L484 840H506L470 710Q512 699 554 671Q584 652 602 622ZM444 695Q416 701 382 701H375L316 487Q332 470 371 434L444 695ZM262 554T299 507L353 699Q312 692 287 666T262 595Q262 554 299 507ZM253 8L317 240L262 293L184 13Q214 8 241 8H253ZM382
144T370 169T334 221L275 10Q331 16 356 43T382 117Q382 144 370 169Z" />
<glyph unicode="%" glyph-name="percent" horiz-adv-x="796" d="M853 811L20 -55L5 -42L838 824L853 811ZM112 601T141 650T223 730T337 761Q398 761 432 731T466 645Q466 595 437 546T356 466T242 435Q181 435 147 465T112 551Q112 601 141 650ZM295 746T269
707T229 612T215 514Q215 483 224 467T249 450Q283 450 309 489T349 584T363 683Q363 713 354 729T329 746Q295 746 269 707ZM372 152T402 201T483 281T597 312Q658 312 692 282T726 196Q726 146 697 97T616 17T502 -14Q441 -14 407 16T372 102Q372 152 402 201ZM555
297T529 258T489 163T475 65Q475 34 484 18T509 1Q543 1 569 40T609 135T623 234Q623 265 615 281T589 297Q555 297 529 258Z" />
<glyph unicode="&amp;" glyph-name="ampersand" horiz-adv-x="863" d="M838 722T875 691T912 589Q912 513 866 467T722 385Q677 368 660 363Q703 317 703 249Q703 183 662 123T539 24T341 -14Q201 -14 115 43T29 205Q29 302 102 374T298 472Q254 487 232 514T210
576Q210 616 238 644T311 687T405 702Q466 702 498 680T531 622Q531 589 507 571T454 552V570Q478 570 493 583T509 619Q509 643 489 657T437 672Q401 672 370 654T320 603T301 529Q301 501 312 478Q348 484 375 484Q411 484 411 463Q411 453 402 448T380 442Q355
442 311 464Q258 444 223 386T188 257Q188 167 248 120T414 72Q485 72 546 93T644 156T682 258Q682 318 645 358L531 319Q500 310 467 298Q423 283 398 263T373 212Q373 184 393 171T444 157Q483 157 510 177T549 219L564 211Q549 182 518 160T440 138Q390 138
355 165T320 251Q320 371 495 428L568 452Q710 498 758 516Q816 537 847 559T879 623Q879 660 851 683T780 706Q762 706 751 700Q795 682 795 641Q795 609 768 589T705 569Q673 569 653 586T633 632Q633 659 649 678T695 708Q728 722 776 722Q838 722 875 691Z"
/>
<glyph unicode="&apos;" glyph-name="quotesingle" horiz-adv-x="228" d="M275 658T263 635T222 570Q188 520 172 488H158Q157 534 149 583Q144 615 144 635L145 650Q147 684 169 707T224 730Q247 730 260 718T275 683Q275 658 263 635Z" />
<glyph unicode="(" glyph-name="parenleft" horiz-adv-x="396" d="M139 -87T88 6T36 223Q36 332 96 440T263 642T505 806L515 793Q349 674 261 530T173 191Q173 89 194 3T259 -169L241 -182Q139 -87 88 6Z" />
<glyph unicode=")" glyph-name="parenright" horiz-adv-x="397" d="M267 711T318 618T370 401Q370 292 310 184T143 -18T-99 -182L-109 -169Q57 -50 145 94T233 433Q233 535 212 621T147 793L165 806Q267 711 318 618Z" />
<glyph unicode="*" glyph-name="asterisk" horiz-adv-x="484" d="M510 575T468 555Q450 546 429 542T368 530L307 519Q322 515 363 508Q401 500 420 495T451 482Q472 468 472 448Q472 430 457 413Q437 388 413 388Q398 388 384 398Q371 406 360 420T333 462Q327
472 304 508L310 460Q316 406 316 390Q316 348 297 328T251 307Q234 307 224 316T213 344Q213 366 224 390T266 463Q282 486 297 513Q261 481 248 468Q239 460 220 442T186 414T161 397Q143 388 126 388Q101 388 92 412Q90 417 90 427Q90 459 131 481Q149 490 169
494T230 506Q276 513 294 517Q275 521 236 528Q201 534 181 539T148 554Q127 568 127 588Q127 606 142 623Q162 648 186 648Q202 648 216 638Q228 629 239 615T266 573Q278 553 298 523L292 571Q284 617 284 646Q284 688 303 708T349 729Q365 729 376 721T387 694Q387
674 377 651T342 588Q313 538 306 525Q357 573 353 569Q358 574 378 592T412 622T439 639Q456 648 473 648Q491 648 500 636T510 608Q510 575 468 555Z" />
<glyph unicode="+" glyph-name="plus" horiz-adv-x="575" d="M291 370L358 606H394L327 370H559L550 340H318L251 105H215L282 340H49L58 370H291Z" />
<glyph unicode="," glyph-name="comma" horiz-adv-x="287" d="M167 5T127 -50T18 -136L13 -120Q59 -97 88 -62T121 15Q94 -14 59 -14Q29 -14 13 0T-3 40Q-3 81 27 110T101 140Q133 140 150 122T167 68Q167 5 127 -50Z" />
<glyph unicode="-" glyph-name="hyphen" horiz-adv-x="506" d="M436 306L414 223H53L75 306H436Z" />
<glyph unicode="." glyph-name="period" horiz-adv-x="279" d="M-1 86T27 113T96 140Q128 140 146 124T164 79Q164 43 135 15T66 -14Q34 -14 17 2T-1 46Q-1 86 27 113Z" />
<glyph unicode="/" glyph-name="slash" horiz-adv-x="461" d="M504 722H537L-11 -14H-44L504 722Z" />
<glyph unicode="0" glyph-name="zero" horiz-adv-x="621" d="M474 531T526 483T578 349Q578 260 529 176T399 39T223 -14Q131 -14 78 34T24 169Q24 258 73 342T205 478T381 531Q474 531 526 483ZM311 513T266 460T196 322T170 149Q170 74 189 39T239 4Q294 4 338
59T407 199T432 371Q432 444 414 478T365 513Q311 513 266 460Z" />
<glyph unicode="1" glyph-name="one" horiz-adv-x="371" d="M194 0H53L178 422Q130 402 45 380L48 401Q145 426 207 456T331 528H351L194 0Z" />
<glyph unicode="2" glyph-name="two" horiz-adv-x="535" d="M392 531T435 503T479 426Q479 382 443 340T359 264T235 185Q223 178 194 160T147 129Q172 129 228 116Q254 110 281 106T331 101Q370 101 393 113T416 149Q416 179 380 198L391 211Q420 196 433 176T446
126Q446 72 407 33T291 -6Q269 -6 244 -2T195 8Q161 16 136 20T81 24Q52 24 29 19T-25 0L-20 21Q14 48 36 63Q120 125 181 176T290 293T338 422Q338 461 318 482T262 503Q223 503 183 480T117 421T90 348Q90 323 103 312T148 300Q174 300 194 309T240 341L252 327Q226
302 197 291T141 279Q110 279 88 294T66 347Q66 391 99 434T189 504T318 531Q392 531 435 503Z" />
<glyph unicode="3" glyph-name="three" horiz-adv-x="517" d="M385 532T429 505T473 432Q473 368 403 320T242 250Q328 248 380 218T432 127Q432 46 349 -16T144 -114T-87 -151L-82 -133Q2 -128 87 -95T228 0T285 143Q285 183 269 207T224 234Q208 227 193 222T166
217Q144 217 149 232Q153 251 197 251L216 250Q271 273 305 314T340 408Q340 450 316 474T247 498Q212 498 177 481T120 436T97 379Q97 354 110 343T155 331Q189 331 217 346L228 331Q189 310 148 310Q117 310 95 325T73 378Q73 415 105 450T191 509T310 532Q385
532 429 505Z" />
<glyph unicode="4" glyph-name="four" horiz-adv-x="535" d="M453 46H323L273 -141H132L182 46H-58L-52 67L428 531H454L333 81H463L453 46ZM192 81L263 345L-9 81H192Z" />
<glyph unicode="5" glyph-name="five" horiz-adv-x="472" d="M444 531Q418 465 381 428T295 391Q274 391 230 409Q206 419 191 423T162 426L69 226Q133 261 224 261Q310 261 352 230T395 142Q395 55 317 -10T126 -110T-88 -148L-83 -130Q-9 -130 68 -97T195 -3T246
140Q246 231 152 231Q106 231 54 204L44 209L182 518Q201 519 217 516T258 506Q276 501 297 497T340 493Q371 493 393 503T432 538L444 531Z" />
<glyph unicode="6" glyph-name="six" horiz-adv-x="567" d="M552 702Q460 677 373 597T229 394T173 123Q173 57 186 32T225 6Q267 6 302 55T357 174T377 303Q377 349 364 370T327 391Q302 391 278 366T236 288L220 293Q261 438 383 438Q447 438 486 399T525 287Q525
210 481 140T361 28T200 -14Q28 -14 28 170Q28 307 113 427T320 626T546 722L552 702Z" />
<glyph unicode="7" glyph-name="seven" horiz-adv-x="503" d="M564 516L509 452Q428 360 383 301T299 168T237 0Q229 -34 226 -51T220 -79Q214 -109 191 -128T131 -148Q71 -148 71 -92Q71 -76 76 -56Q91 7 141 79T251 214T404 369Q469 432 507 473Q431 423 391
404T307 384Q283 384 264 388T220 401Q197 408 183 411T151 415Q118 415 98 401T78 356Q78 283 199 255L194 239Q42 269 42 383Q42 439 81 480T199 522Q228 522 254 517T317 500Q355 488 384 482T446 476Q475 476 497 484T537 516H564Z" />
<glyph unicode="8" glyph-name="eight" horiz-adv-x="575" d="M584 506T372 406L387 392Q423 360 445 336T483 280T498 209Q498 145 456 94T344 15T194 -14Q107 -14 52 18T-3 117Q-3 193 70 255T250 360Q202 406 178 442T154 528Q154 585 191 629T288 697T418
722Q492 722 538 695T584 615Q584 506 372 406ZM399 453T424 508T449 622Q449 704 393 704Q364 704 339 685T297 632T281 562Q281 520 302 487T361 417Q399 453 424 508ZM251 4T285 26T341 87T362 172Q362 226 337 264T261 351Q207 310 173 244T139 103Q139 55
156 30T214 4Q251 4 285 26Z" />
<glyph unicode="9" glyph-name="nine" horiz-adv-x="554" d="M516 531T516 347Q516 214 433 98T229 -95T8 -188L2 -168Q91 -144 176 -66T316 132T371 394Q371 460 358 485T319 511Q276 511 242 462T187 343T167 214Q167 126 216 126Q242 126 266 151T307 229L324
224Q283 79 160 79Q97 79 58 118T19 230Q19 307 63 377T183 489T344 531Q516 531 516 347Z" />
<glyph unicode=":" glyph-name="colon" horiz-adv-x="311" d="M114 477T142 504T211 531Q243 531 261 515T279 470Q279 434 250 406T181 377Q149 377 132 393T114 437Q114 477 142 504ZM14 86T42 113T111 140Q143 140 161 124T179 79Q179 43 150 15T81 -14Q49
-14 32 2T14 46Q14 86 42 113Z" />
<glyph unicode=";" glyph-name="semicolon" horiz-adv-x="318" d="M119 477T147 504T216 531Q248 531 266 515T284 470Q284 434 255 406T186 377Q154 377 137 393T119 437Q119 477 147 504ZM179 5T139 -50T30 -136L25 -120Q71 -97 100 -62T133 15Q106 -14 71 -14Q41
-14 25 0T9 40Q9 81 39 110T113 140Q145 140 162 122T179 68Q179 5 139 -50Z" />
<glyph unicode="&lt;" glyph-name="less" horiz-adv-x="594" d="M610 553L123 351L454 177L438 145L48 355L600 582L610 553Z" />
<glyph unicode="=" glyph-name="equal" horiz-adv-x="650" d="M112 440H613L604 410H103L112 440ZM72 300H573L564 270H63L72 300Z" />
<glyph unicode="&gt;" glyph-name="greater" horiz-adv-x="595" d="M48 184L508 376L138 574L154 603L583 372L58 155L48 184Z" />
<glyph unicode="?" glyph-name="question" horiz-adv-x="486" d="M277 760T252 753T214 730Q241 730 262 711T284 665Q283 635 261 615T207 594Q177 594 157 612T136 662Q136 703 167 730T246 769T343 782Q424 782 479 750T534 658Q534 614 494 568T356 448Q286
397 255 371T210 323T195 272Q195 243 212 225T263 207Q285 207 306 214T340 233Q321 239 307 255T292 296Q292 323 311 342T361 361Q385 361 402 345T419 304Q419 265 390 239T317 200T232 187Q164 187 122 215T79 299Q79 334 97 364T143 419T223 485L242 500Q299
546 326 570T368 619T383 675Q383 714 362 737T300 760Q277 760 252 753ZM111 86T139 113T208 140Q240 140 258 124T276 79Q276 43 247 15T178 -14Q146 -14 129 2T111 46Q111 86 139 113Z" />
<glyph unicode="@" glyph-name="at" horiz-adv-x="863" d="M451 26T451 96Q451 112 454 127Q426 74 392 50T313 26Q260 26 230 57T199 148Q199 218 237 296T336 426T465 478Q501 478 517 461T536 409L552 464Q631 464 678 478L572 117Q566 95 566 82Q566 69 571
64T589 58Q622 58 676 95T772 204T814 371Q814 499 733 562T516 626Q381 626 274 559T108 384T48 158Q48 58 92 -7T210 -102T375 -132Q511 -132 615 -71L621 -84Q576 -114 513 -131T376 -149Q279 -149 201 -118T75 -19T28 156Q28 278 88 390T260 573T516 644Q662
644 748 575T834 371Q834 267 785 188T665 68T530 26Q451 26 451 96ZM400 74T427 113T484 234L524 370L525 385Q525 410 516 426T486 443Q452 443 415 399T352 286T327 149Q327 110 336 92T368 74Q400 74 427 113Z" />
<glyph unicode="A" glyph-name="A" horiz-adv-x="653" d="M536 51T550 36T582 20L578 0Q527 3 433 3Q331 3 283 0L287 20Q321 22 340 28T367 52T373 104L364 268H148L60 143Q28 98 28 69Q28 45 49 34T112 20L107 0Q23 3 -23 3Q-60 3 -92 0L-88 20Q-62 27 -38 50T25
126L442 713Q451 712 468 712Q486 712 493 713L533 84Q536 51 550 36ZM363 288L350 553L162 288H363Z" />
<glyph unicode="B" glyph-name="B" horiz-adv-x="679" d="M501 367T559 324T617 216Q617 147 575 99T459 25T288 0L230 1Q168 3 113 3Q12 3 -42 0L-38 20Q-2 22 16 28T44 51T65 106L197 602Q205 634 205 650Q205 669 191 678T138 688L143 708Q196 705 295 705L380
706Q401 707 441 707Q553 707 607 673T661 575Q661 523 628 480T533 408T392 372Q501 367 559 324ZM397 688T384 674T359 617L295 376H330Q384 376 423 406T483 485T504 591Q504 638 487 663T427 688Q397 688 384 674ZM323 23T365 51T428 127T450 234Q450 291 423
325T335 359H291L224 106Q216 72 216 61Q216 42 227 33T264 23Q323 23 365 51Z" />
<glyph unicode="C" glyph-name="C" horiz-adv-x="693" d="M713 622T682 478H660Q668 524 668 557Q668 603 651 633Q616 698 533 698Q453 698 381 628T265 445T221 214Q221 115 256 66T356 16Q394 16 435 33T506 82Q532 110 551 144T596 240H618Q571 67 559 0H537Q540
21 540 34Q540 60 527 60Q519 60 507 51Q461 20 415 3T311 -14Q177 -14 110 50T43 234Q43 352 105 465T278 650T521 722Q577 722 609 705T670 657Q678 648 685 648Q703 648 725 708H746Q713 622 682 478Z" />
<glyph unicode="D" glyph-name="D" horiz-adv-x="771" d="M756 354T700 246T533 69T263 0L214 1Q156 3 112 3Q15 3 -38 0L-35 20Q-1 22 16 28T44 51T65 106L196 602Q204 629 204 645Q204 667 190 677T138 688L141 708Q186 705 273 705H305Q410 708 454 708Q601
708 678 648T756 469Q756 354 700 246ZM365 18T440 89T554 271T594 501Q594 595 555 642T432 690Q406 690 394 684T373 660T355 604L224 104Q213 60 213 49Q213 32 224 25T263 18Q365 18 440 89Z" />
<glyph unicode="E" glyph-name="E" horiz-adv-x="626" d="M610 705T671 708Q643 632 633 590Q628 568 620 528H598Q599 541 599 564Q599 631 574 658T488 685H457Q422 685 405 680T377 657T356 602L293 366H330Q380 366 414 401T467 486H490Q471 429 459 381L453
356Q441 309 424 226H402Q403 233 403 248Q403 346 319 346H288L224 106Q215 75 215 57Q215 36 229 30T281 23H318Q372 23 409 39T475 94T534 200H557Q546 171 535 128Q518 69 509 0Q441 3 282 3Q66 3 -43 0L-38 20Q-2 22 15 28T44 51T65 106L197 602Q205 636 205
650Q205 672 191 679T138 688L143 708Q252 705 468 705Q610 705 671 708Z" />
<glyph unicode="F" glyph-name="F" horiz-adv-x="588" d="M610 705T671 708Q648 646 632 586Q615 523 611 498H588Q592 529 592 559Q592 628 565 656T474 685H451Q418 685 402 680T375 657T356 602L292 362H338Q386 362 419 395T475 482H497Q482 435 460 352Q451
314 429 204H407Q410 272 394 307T327 342H287L224 106Q216 76 216 62Q216 38 234 30T302 20L298 0Q237 3 120 3Q10 3 -43 0L-38 20Q-2 22 15 28T44 51T65 106L197 602Q205 636 205 650Q205 672 191 679T138 688L143 708Q252 705 468 705Q610 705 671 708Z" />
<glyph unicode="G" glyph-name="G" horiz-adv-x="739" d="M361 6T381 12T417 27Q433 38 441 53T458 100L481 188Q490 221 490 240Q490 265 472 273T406 284L411 304Q473 301 581 301Q675 301 722 304L717 284Q693 282 682 276T662 254T643 198L590 0H570Q572 26
565 41T542 57Q527 57 512 51T481 37T458 25Q420 5 385 -4T313 -14Q182 -14 110 46T38 215Q38 331 100 449T272 644T518 722Q578 722 613 706T682 657Q691 648 699 648Q709 648 718 662T739 708H761Q728 622 697 478H675Q680 521 680 553Q680 577 677 593T666 626Q646
664 607 684T512 704Q416 704 345 617T235 407T197 182Q197 92 232 49T340 6Q361 6 381 12Z" />
<glyph unicode="H" glyph-name="H" horiz-adv-x="810" d="M828 705T884 708L879 688Q842 686 825 680T797 657T776 602L644 106Q635 68 635 57Q635 36 649 29T703 20L699 0Q645 3 535 3Q434 3 378 0L382 20Q418 22 436 28T464 51T485 106L549 346H288L224 106Q215
68 215 57Q215 36 229 29T283 20L279 0Q224 3 122 3Q13 3 -41 0L-36 20Q-1 22 16 28T44 51T65 106L197 602Q205 636 205 650Q205 672 191 679T138 688L143 708Q194 705 306 705Q402 705 464 708L459 688Q422 686 405 680T377 657T356 602L293 366H554L617 602Q626
634 626 650Q626 672 611 679T558 688L563 708Q617 705 719 705Q828 705 884 708Z" />
<glyph unicode="I" glyph-name="I" horiz-adv-x="390" d="M215 68T215 57Q215 36 229 29T283 20L279 0Q221 3 116 3Q11 3 -41 0L-36 20Q-1 22 16 28T44 51T65 106L197 602Q205 636 205 650Q205 672 191 679T138 688L143 708Q192 705 300 705Q399 705 464 708L459
688Q422 686 405 680T377 657T356 602L224 106Q215 68 215 57Z" />
<glyph unicode="J" glyph-name="J" horiz-adv-x="683" d="M787 724T787 718Q787 694 714 666Q655 619 614 545T541 366H641L638 346H536Q528 320 525 307L463 65Q434 -49 362 -118T167 -188Q104 -188 66 -170T27 -113Q27 -80 49 -59T111 -37Q145 -37 166 -53T189
-97Q189 -144 134 -168Q143 -171 162 -171Q200 -171 224 -143T263 -70T304 70L358 262Q369 304 387 346H251L254 366H396Q439 456 506 519T684 655Q644 641 588 613Q536 589 504 578T430 567Q401 567 376 573T313 594Q283 605 261 611T216 617Q188 617 172 603T155
560Q157 493 268 483L265 464Q186 470 139 506T91 608Q91 668 127 703T233 739Q276 739 308 727T384 689Q425 664 458 651T536 638Q621 638 705 677Q743 735 768 735Q776 735 781 730Q787 724 787 718Z" />
<glyph unicode="K" glyph-name="K" horiz-adv-x="740" d="M724 722T749 698T775 633Q775 596 751 565T684 534Q656 534 637 551T618 599Q618 629 638 657T692 700Q686 703 676 703Q658 703 647 698T625 681Q609 663 597 635T571 562Q554 508 540 473T499 409T433
372Q510 364 542 334T575 240Q575 229 573 201L562 96Q559 59 587 59Q606 59 619 73T643 119L660 170H680L654 93Q636 39 601 13T520 -14Q463 -14 434 13T404 88Q404 96 406 112L425 252Q428 276 428 294Q428 319 422 334T402 359Q358 348 341 348Q316 348 316
365Q316 389 345 389Q367 389 404 379Q449 385 476 412T519 473T552 565Q567 616 579 645T610 693Q639 722 681 722Q724 722 749 698ZM215 68T215 57Q215 36 229 29T283 20L279 0Q224 3 122 3Q13 3 -41 0L-36 20Q-1 22 16 28T44 51T65 106L197 602Q205 636 205
650Q205 672 191 679T138 688L143 708Q194 705 306 705Q402 705 464 708L459 688Q422 686 405 680T377 657T356 602L224 106Q215 68 215 57Z" />
<glyph unicode="L" glyph-name="L" horiz-adv-x="605" d="M552 183T538 128Q522 72 511 0Q443 3 284 3Q66 3 -43 0L-38 20Q-2 22 15 28T44 51T65 106L197 602Q205 636 205 650Q205 672 191 679T138 688L143 708Q196 705 308 705Q402 705 464 708L459 688Q422 686
405 680T376 657T355 602L223 106Q214 68 214 57Q214 36 228 30T281 23H321Q392 23 446 66T540 210H562Q552 183 538 128Z" />
<glyph unicode="M" glyph-name="M" horiz-adv-x="917" d="M830 705Q926 705 991 708L986 688Q949 686 932 680T904 657T883 602L751 106Q743 72 743 58Q743 36 757 29T810 20L806 0Q743 3 646 3Q537 3 486 0L490 20Q527 22 544 28T572 51T593 106L738 645L323
-5H301L220 609L94 129Q86 100 86 80Q86 51 105 36T169 20L165 0Q129 3 53 3Q-7 3 -42 0L-37 20Q11 22 34 49T71 129L198 602Q206 636 206 650Q206 672 192 679T139 688L144 708Q189 705 281 705Q333 705 371 708L428 197L752 705H830Z" />
<glyph unicode="N" glyph-name="N" horiz-adv-x="825" d="M882 754T907 730T933 669Q933 630 907 604T842 578Q809 578 791 594T773 638Q773 671 794 696T848 731Q844 735 832 735Q784 735 748 682Q704 616 656 450T547 -5H525L277 538Q234 326 196 181T121 -11Q99
-40 75 -57T14 -74Q-30 -74 -55 -50T-80 11Q-80 50 -55 76T11 102Q43 102 61 86T80 42Q80 9 59 -16T4 -51Q9 -55 21 -55Q72 -55 105 -1Q142 58 182 210T269 602Q275 631 275 647Q275 671 259 678T198 688L203 708Q235 705 292 705Q338 705 373 708L580 234Q664
593 730 690Q774 754 838 754Q882 754 907 730Z" />
<glyph unicode="O" glyph-name="O" horiz-adv-x="777" d="M42 339T99 455T261 646T495 722Q623 722 695 659T767 481Q767 368 709 253T547 62T313 -14Q185 -14 114 49T42 226Q42 339 99 455ZM418 704T355 632T253 446T214 213Q214 116 244 60T322 4Q390 4 453
76T555 262T594 495Q594 592 564 648T486 704Q418 704 355 632Z" />
<glyph unicode="P" glyph-name="P" horiz-adv-x="643" d="M223 106Q216 82 216 62Q216 41 230 31T282 20L278 0Q218 3 124 3Q11 3 -42 0L-38 20Q-2 22 16 28T44 51T65 106L197 602Q204 635 204 649Q204 669 190 678T138 688L143 708Q194 705 302 705Q350 705 374
706L448 707Q683 707 683 556Q683 478 631 416T485 319T270 284L223 106ZM276 304H280Q363 304 416 344T492 446T516 579Q516 634 493 661T419 688Q398 688 388 681T372 658T355 602L276 304Z" />
<glyph unicode="Q" glyph-name="Q" horiz-adv-x="831" d="M706 103T728 82T751 19Q751 -31 714 -79T612 -157T472 -188Q414 -188 366 -170T281 -124T199 -56Q123 -82 66 -82Q17 -82 -10 -62T-38 -1Q-38 48 1 79T102 111Q155 111 204 87T321 16Q412 63 486 138T603
306T646 501Q646 597 607 650T495 704Q427 704 374 659T292 542T263 396Q263 335 287 304T365 272Q425 272 470 310T528 399Q534 421 532 447Q522 417 497 402T444 387Q411 387 392 408T372 461Q372 500 399 526T467 553Q509 553 533 524T557 443Q557 386 526 340T438
269T310 243Q213 243 154 290T95 421Q95 505 154 574T310 682T516 722Q604 722 672 697T778 626T816 519Q816 433 747 337T568 153T338 4Q412 -48 469 -75T591 -103Q683 -103 720 -32Q692 -54 656 -54Q622 -54 600 -35T578 19Q578 55 603 79T669 103Q706 103 728
82ZM118 -65T185 -42Q139 0 108 20T42 41Q16 41 0 28T-17 -8Q-17 -35 7 -50T74 -65Q118 -65 185 -42Z" />
<glyph unicode="R" glyph-name="R" horiz-adv-x="711" d="M655 121H678L674 108Q655 45 619 16T521 -14Q460 -14 430 12T399 83Q399 96 400 102L415 216Q417 240 417 249Q417 295 389 316T286 340L224 106Q214 71 214 57Q214 38 229 30T282 20L278 0Q218 3 122
3Q11 3 -42 0L-38 20Q-2 22 16 28T44 51T65 106L196 602Q205 638 205 649Q205 669 191 678T138 688L143 708Q194 705 294 705L380 706Q403 707 444 707Q566 707 624 673T683 568Q683 480 604 421T389 346Q480 337 527 313T574 230Q574 224 572 208L558 105Q557
97 557 83Q557 35 589 35Q608 35 622 52T650 107L655 121ZM290 358H298Q399 358 460 417T522 583Q522 637 499 662T429 688Q399 688 385 675T360 622L290 358Z" />
<glyph unicode="S" glyph-name="S" horiz-adv-x="587" d="M582 619T561 511H541Q547 540 547 567Q547 627 510 662T404 698Q350 698 317 671T283 589Q283 543 310 503T394 402Q436 358 460 328T501 262T518 186Q518 119 475 74T369 8T242 -14Q178 -14 143 -3T69
32Q47 47 34 47Q21 47 14 37T-8 -7H-28Q-12 31 3 84T40 233H60Q51 195 51 162Q51 87 92 48T214 8Q343 8 343 113Q343 169 317 213T237 316Q201 357 180 384T145 447T130 522Q130 586 166 631T260 699T376 722Q428 722 465 710T534 678Q560 662 567 662Q575 662
582 674T600 715H620Q582 619 561 511Z" />
<glyph unicode="T" glyph-name="T" horiz-adv-x="681" d="M816 858T837 838T858 788Q858 727 789 693Q728 664 622 664Q604 664 564 666L417 116Q409 86 409 70Q409 44 427 33T492 20L488 0Q425 3 303 3Q184 3 127 0L131 20Q174 22 197 30T234 58T258 116L409
681Q334 688 289 688Q206 688 176 671Q202 663 219 642T236 590Q236 555 214 531T158 506Q125 506 106 528T86 585Q86 613 101 639T151 682Q200 706 285 706Q351 706 471 694Q581 684 631 684Q698 684 737 697Q722 711 712 731T702 776Q702 812 723 835T781 858Q816
858 837 838Z" />
<glyph unicode="U" glyph-name="U" horiz-adv-x="694" d="M659 603T659 629Q659 658 642 670T583 688L588 708Q625 705 695 705Q750 705 783 708L778 688Q744 683 725 671T694 633T668 556L600 291Q564 153 502 79Q465 36 412 11T297 -14Q224 -14 175 6T102 65Q75
104 75 158Q75 206 97 288L180 602Q188 636 188 650Q188 672 174 679T121 688L127 708Q178 705 292 705Q385 705 447 708L441 688Q404 686 387 680T359 657T338 602L250 271Q226 183 226 125Q226 73 248 47T316 21Q421 21 481 89T574 280L643 544Q659 603 659 629Z"
/>
<glyph unicode="V" glyph-name="V" horiz-adv-x="661" d="M748 705T780 708L775 688Q742 679 716 657T656 582L274 -5L249 -4L223 -5L144 624Q140 657 125 672T92 688L97 708Q148 705 241 705Q342 705 394 708L389 688Q344 686 326 675T308 628Q308 613 309 604L359
161L622 565Q652 611 652 639Q652 663 631 674T569 688L574 708Q613 705 705 705Q748 705 780 708Z" />
<glyph unicode="W" glyph-name="W" horiz-adv-x="982" d="M1060 705T1091 708L1086 688Q1051 678 1024 657T968 582L653 -5H601L539 441L270 -5H218L139 624Q135 658 120 672T86 688L91 708Q140 705 231 705Q316 705 361 708L356 688Q327 686 315 674T303 629Q303
613 304 604L352 170L535 471L514 624Q510 657 498 672T471 688L476 708Q523 705 606 705Q710 705 762 708L757 688Q712 686 695 675T677 631Q677 624 679 604L732 186L938 565Q963 612 963 639Q963 664 943 675T879 688L884 708Q925 705 1015 705Q1060 705 1091
708Z" />
<glyph unicode="X" glyph-name="X" horiz-adv-x="741" d="M758 722T781 696T805 631Q805 589 780 562T716 534Q685 534 668 552T651 601Q652 634 673 661T727 699Q722 703 710 703Q676 703 645 680Q607 650 559 580T465 409L498 125Q503 93 516 75T555 57Q579
57 595 71T623 119L640 170H660L634 93Q614 37 580 12T495 -14Q418 -14 384 26T340 142L326 258Q287 184 237 120T141 20Q97 -14 48 -14Q6 -14 -17 12T-40 77Q-40 119 -15 146T49 174Q79 174 96 157T113 109Q113 75 93 48T38 9Q42 5 55 5Q86 5 121 28Q164 58 218
126T322 290L286 586Q278 656 230 656Q207 656 191 640T162 589L145 538H125L151 615Q171 671 207 696T297 722Q369 722 402 682T446 566L461 441Q496 518 540 584T625 686Q670 722 716 722Q758 722 781 696Z" />
<glyph unicode="Y" glyph-name="Y" horiz-adv-x="734" d="M765 722T790 698T815 636Q815 598 790 572T724 546Q691 546 673 562T655 607Q656 640 677 664T731 699Q726 703 714 703Q684 703 654 680Q609 648 552 557T449 331L392 106Q386 82 386 66Q386 40 403
31T463 20L458 0Q401 3 286 3Q178 3 125 0L130 20Q166 22 184 28T213 51T233 106L287 321Q271 458 243 553T172 648Q155 648 145 636T126 601L105 538H83L108 615Q127 672 162 697T249 722Q314 722 351 682T407 567T440 365Q473 459 515 534T604 660Q661 722 722
722Q765 722 790 698Z" />
<glyph unicode="Z" glyph-name="Z" horiz-adv-x="658" d="M722 709T722 700Q722 686 704 670T647 638L370 366H522L514 346H350L67 68Q116 111 168 134T271 158Q306 158 333 152T395 133Q424 123 441 119T478 114Q499 114 511 124T523 154Q523 196 450 212L454
231Q509 222 546 195T584 115Q584 58 545 22T439 -14Q400 -14 371 -3T302 31Q261 54 233 64T168 75Q141 75 119 69T62 48Q44 22 24 6T-12 -10Q-21 -10 -26 -5Q-32 -1 -32 8Q-32 22 -14 38T43 70L324 346H162L169 366H344L623 640Q574 597 522 574T420 550Q385 550
357 556T295 575Q268 585 250 589T213 594Q191 594 180 584T168 554Q168 533 185 519T241 496L236 477Q181 486 144 513T106 593Q106 650 145 686T251 722Q290 722 319 711T388 677Q429 654 457 644T522 633Q549 633 571 639T628 660Q646 686 666 702T702 718Q711
718 716 713Q722 709 722 700Z" />
<glyph unicode="[" glyph-name="bracketleft" horiz-adv-x="362" d="M215 772H445L441 753H360L131 -162H212L208 -181H-22L215 772Z" />
<glyph unicode="\" glyph-name="backslash" horiz-adv-x="491" d="M390 -14H357L131 722H162L390 -14Z" />
<glyph unicode="]" glyph-name="bracketright" horiz-adv-x="363" d="M148 -181H-82L-78 -162H3L232 753H151L155 772H385L148 -181Z" />
<glyph unicode="^" glyph-name="asciicircum" horiz-adv-x="528" d="M229 370T177 348T72 310L68 324Q143 356 210 411T318 528H336Q345 466 382 412T480 325L472 310Q416 322 362 344T266 394Q229 370 177 348Z" />
<glyph unicode="_" glyph-name="underscore" horiz-adv-x="698" d="M524 -87L494 -174H-55L-26 -87H524Z" />
<glyph unicode="`" glyph-name="grave" horiz-adv-x="324" d="M309 647T253 703Q236 720 222 735T198 766Q187 785 187 802Q187 815 193 826T211 844Q222 851 237 851Q254 851 268 843T292 819Q301 804 306 787T320 739Q335 670 360 606L348 599Q309 647 253 703Z" />
<glyph unicode="a" glyph-name="a" horiz-adv-x="558" d="M495 162H514L489 89Q469 33 434 10T357 -14Q305 -14 283 17Q269 35 269 67Q269 93 278 126Q244 52 203 19T111 -14Q56 -14 28 18T-1 109Q-1 198 46 297T167 464T310 531Q337 531 353 515T373 467L387
516Q467 517 532 531L401 85Q396 68 396 57Q396 35 415 35Q450 35 477 114L495 162ZM362 428Q363 433 363 443Q363 468 355 481T329 494Q295 494 252 433T178 280T147 102Q147 69 153 55T175 40Q197 40 223 70T276 158T323 295L318 271L362 428Z" />
<glyph unicode="b" glyph-name="b" horiz-adv-x="547" d="M455 531T486 492T518 377Q518 295 480 204T370 49T207 -14Q179 -14 156 -3T122 28Q94 26 63 15T-9 -16L-24 -9Q-11 18 -3 50L178 667Q182 680 182 695Q182 715 167 724T115 733L121 754Q190 755 245 765T352
795L235 389Q272 463 310 497T394 531Q455 531 486 492ZM226 15T271 79T344 236T372 409Q372 446 364 462T338 478Q310 478 276 429T210 300L134 37Q153 15 179 15Q226 15 271 79Z" />
<glyph unicode="c" glyph-name="c" horiz-adv-x="463" d="M309 511T263 458T187 318T158 140Q158 40 234 40Q306 40 366 128L386 120Q350 62 295 24T168 -14Q95 -14 52 25T8 140Q8 226 51 317T172 470T349 531Q404 531 437 504T471 435Q471 408 458 382T422 340T372
324Q347 324 331 340T315 382Q315 421 342 451T406 491Q389 511 358 511Q309 511 263 458Z" />
<glyph unicode="d" glyph-name="d" horiz-adv-x="579" d="M516 162H535L511 89Q493 32 458 9T379 -14Q317 -14 300 32Q292 50 292 74Q292 103 304 145L305 149Q267 64 225 25T123 -14Q70 -14 37 21T4 126Q4 207 46 302T164 464T337 531Q384 531 398 497L443 667Q448
685 448 695Q448 715 433 724T380 733L386 754Q455 755 511 765T620 795L424 85Q419 71 419 58Q419 35 438 35Q453 35 468 52T499 114L516 162ZM391 473Q380 508 351 508Q308 508 262 447T184 291T152 105Q152 70 159 53T184 36Q204 36 231 65T287 151T341 284L391
473Z" />
<glyph unicode="e" glyph-name="e" horiz-adv-x="469" d="M468 369T375 307T159 211Q153 177 153 143Q153 90 172 68T230 46Q261 46 300 65T376 128L392 120Q356 64 296 25T160 -14Q91 -14 47 23T3 127Q3 216 51 311T182 468T364 531Q410 531 439 511T468 452Q468
369 375 307ZM313 512T276 471T208 365T162 230Q233 261 272 297Q312 333 335 379T358 479Q358 498 354 505T342 512Q313 512 276 471Z" />
<glyph unicode="f" glyph-name="f" horiz-adv-x="341" d="M463 782T498 756T533 686Q533 653 507 626T441 599Q411 599 394 613T377 653Q377 686 398 712T454 751Q449 757 440 760T420 764Q390 764 367 744Q349 728 336 693T306 594L285 517H392L386 497H280L100
-174Q16 -175 -45 -188L139 497H55L61 517H144Q166 598 194 651T260 736Q316 782 401 782Q463 782 498 756Z" />
<glyph unicode="g" glyph-name="g" horiz-adv-x="472" d="M495 575T512 558T529 511Q529 484 515 469T482 453Q462 453 447 468T432 511Q432 530 441 555Q402 538 381 510Q407 497 421 474T435 417Q435 375 412 334T345 262T245 220Q189 195 165 180T140 151Q140
142 151 136T185 122L269 94Q322 76 352 53T383 -14Q383 -62 342 -102T230 -167T79 -191Q1 -191 -51 -170T-103 -115Q-103 -80 -47 -56T80 -23L84 -38Q22 -72 22 -117Q22 -145 43 -159T101 -174Q138 -174 178 -160T246 -121T273 -68Q273 -52 262 -45T221 -29L79
12Q52 20 36 36T19 77Q19 113 61 144T198 215H188Q121 215 80 243T38 327Q38 373 66 420T151 498T284 530Q326 530 362 519Q380 544 407 559T464 575Q495 575 512 558ZM250 233T274 300T298 449Q298 479 292 495T266 512Q237 512 216 477T184 391T173 292Q173 260
181 247T205 233Q250 233 274 300Z" />
<glyph unicode="h" glyph-name="h" horiz-adv-x="570" d="M525 162L500 89Q464 -14 366 -14Q275 -14 275 67Q275 103 290 145L379 415Q388 444 388 459Q388 481 369 481Q341 481 303 429T224 289T151 97L127 13Q126 12 126 10V11L123 0H-18L180 667Q185 685 185
695Q185 715 170 724T117 733L123 754Q193 755 248 765T356 795L220 330Q271 443 320 487T433 531Q480 531 502 510T524 451Q524 419 510 380L412 85Q406 67 406 56Q406 35 426 35Q459 35 488 114L506 162H525Z" />
<glyph unicode="i" glyph-name="i" horiz-adv-x="322" d="M178 725T207 749T279 773Q314 773 333 757T353 711Q353 671 323 645T249 619Q213 619 194 636T177 684Q178 725 207 749ZM146 455T146 462Q146 482 128 482Q110 482 95 464T64 403L44 352H25L53 428Q90
531 192 531Q238 531 259 509T280 450Q280 421 269 391L164 85Q158 67 158 56Q158 35 178 35Q193 35 208 52T241 114L259 162H278L252 89Q217 -14 117 -14Q26 -14 26 69Q26 102 41 145L139 432Q146 455 146 462Z" />
<glyph unicode="j" glyph-name="j" horiz-adv-x="301" d="M-134 -170Q-83 -168 -46 -131T10 -18L136 432Q142 452 142 463Q142 482 124 482Q107 482 92 464T61 403L42 352H23L50 428Q69 483 106 507T189 531Q275 531 275 452Q275 424 265 391L182 94Q162 10 132
-44T54 -134Q-19 -188 -138 -188L-134 -170ZM172 723T201 749T275 775Q310 775 329 759T349 714Q349 675 319 648T245 621Q210 621 191 636T172 681Q172 723 201 749Z" />
<glyph unicode="k" glyph-name="k" horiz-adv-x="552" d="M491 531T514 506T538 441Q538 403 515 378T454 353Q424 353 407 369T390 409Q390 439 409 463T456 503Q451 511 440 511Q416 511 398 496Q385 485 377 469T354 419Q334 367 311 335T245 292Q412 288 412
183Q412 168 409 151L394 77Q391 64 391 55Q391 44 395 40T409 35Q442 35 470 114L488 162H507L482 89Q446 -14 338 -14Q298 -14 277 6T255 64Q255 84 259 101L276 178Q282 202 282 219Q282 248 265 263T206 284L123 0H-18L180 667Q185 685 185 695Q185 715 170
724T117 733L123 754Q193 755 248 765T356 795L211 299Q248 305 271 323T308 365T335 425Q346 456 356 475T383 508Q411 531 445 531Q491 531 514 506Z" />
<glyph unicode="l" glyph-name="l" horiz-adv-x="300" d="M138 72T138 60Q138 35 159 35Q190 35 219 114L237 162H256L231 89Q212 33 176 10T98 -14Q53 -14 30 9T7 75Q7 106 19 145L176 667Q181 685 181 695Q181 715 166 724T113 733L120 754Q189 755 244 765T352
795L142 85Q138 72 138 60Z" />
<glyph unicode="m" glyph-name="m" horiz-adv-x="856" d="M811 162L786 89Q750 -14 651 -14Q593 -14 571 22Q560 39 560 67Q560 100 575 145L665 415Q673 441 673 455Q673 475 659 475Q618 475 561 377T445 90V93L419 0H276L398 415Q406 441 406 456Q406 475 390
475Q345 475 289 371T182 100V101L156 0H15L137 432Q142 449 142 461Q142 482 124 482Q106 482 92 464T61 403L42 352H23L50 428Q70 483 105 507T185 531Q228 531 247 509T266 451Q266 425 257 391L235 305Q284 427 335 479T459 531Q538 531 538 453Q538 425 526
380L508 316Q558 435 609 483T728 531Q770 531 790 510T810 453Q810 420 796 380L698 85Q692 66 692 56Q692 35 711 35Q745 35 774 114L792 162H811Z" />
<glyph unicode="n" glyph-name="n" horiz-adv-x="603" d="M559 162L534 89Q498 -14 400 -14Q344 -14 320 19Q307 38 307 66Q307 98 323 145L413 415Q422 442 422 458Q422 481 403 481Q373 481 331 420T245 260T170 50L157 0H16L137 432Q143 450 143 464Q143 482
126 482Q107 482 93 465T62 403L43 352H24L51 428Q70 483 102 507T180 531Q266 531 266 449Q266 421 258 391L227 270Q268 372 305 428T381 508T467 531Q557 531 557 451Q557 421 544 380L446 85Q440 67 440 56Q440 35 459 35Q475 35 490 52T522 114L540 162H559Z"
/>
<glyph unicode="o" glyph-name="o" horiz-adv-x="529" d="M12 233T49 322T160 471T336 531Q414 531 456 489T498 366Q498 284 461 195T350 46T174 -14Q96 -14 54 28T12 151Q12 233 49 322ZM294 511T250 440T176 266T146 74Q146 38 154 22T180 6Q217 6 260 75T334
246T364 441Q364 480 356 495T331 511Q294 511 250 440Z" />
<glyph unicode="p" glyph-name="p" horiz-adv-x="583" d="M490 531T521 492T553 377Q553 295 517 204T412 49T254 -14Q226 -14 202 -5T164 21L137 -75Q131 -96 131 -111Q131 -139 151 -149T214 -160L208 -181L185 -180Q83 -177 50 -177Q17 -177 -91 -181L-85 -160Q-49
-160 -33 -147T-7 -98L174 551Q146 489 110 440T22 337L11 350Q55 398 84 433T142 520T201 646L204 658Q285 664 353 686L267 381Q303 459 343 495T429 531Q490 531 521 492ZM262 15T306 75T379 225T407 395Q407 442 399 460T374 478Q344 478 306 420T236 273L169
38Q188 15 215 15Q262 15 306 75Z" />
<glyph unicode="q" glyph-name="q" horiz-adv-x="551" d="M381 -87Q376 -104 376 -115Q376 -137 392 -147T442 -160L436 -181L412 -180Q310 -177 281 -177Q246 -177 134 -181L140 -160Q186 -159 208 -143T240 -90L304 150Q265 63 224 25T132 -14Q71 -14 40 25T8
140Q8 220 48 312T160 468T319 531Q348 531 371 520T405 488Q456 492 535 532L551 525Q539 501 529 466L381 -87ZM393 479Q374 502 347 502Q300 502 256 436T183 276T154 108Q154 74 162 60T188 45Q212 45 242 80T299 173T343 298L340 283L393 479Z" />
<glyph unicode="r" glyph-name="r" horiz-adv-x="470" d="M455 531T476 509T498 450Q498 407 471 377T403 346Q374 346 358 361T342 406Q342 441 366 469T425 506Q423 506 419 507T412 509Q361 509 308 435T200 171L156 0H15L137 432Q142 448 142 463Q142 482
126 482Q107 482 92 464T61 403L42 352H23L50 428Q87 531 188 531Q265 531 265 450Q265 421 257 391L249 359Q286 454 324 492T417 531Q455 531 476 509Z" />
<glyph unicode="s" glyph-name="s" horiz-adv-x="420" d="M89 7T113 7Q151 7 174 30T197 93Q197 125 183 159T141 236Q137 242 118 272T89 329T79 384Q79 449 127 490T261 531Q326 531 369 508T413 427Q413 399 397 376T352 353Q327 353 312 372T297 420Q297 445
306 466T328 503Q315 511 293 511Q257 511 237 489T215 426Q215 399 225 377T261 315L275 294Q307 241 320 207T334 139Q334 95 311 61T246 6T146 -14Q75 -14 28 13T-19 102Q-19 132 -4 153T37 174Q63 174 78 152T94 96Q94 74 89 57T74 14Q89 7 113 7Z" />
<glyph unicode="t" glyph-name="t" horiz-adv-x="353" d="M164 85Q161 75 161 65Q161 50 169 43T191 35Q213 35 233 56T270 121L285 162H304L284 104Q245 -14 134 -14Q83 -14 58 12T32 85Q32 114 41 145L142 497H52L57 517H148L191 666Q276 667 336 680L289 517H402L399
497H283L164 85Z" />
<glyph unicode="u" glyph-name="u" horiz-adv-x="597" d="M536 165H555L528 89Q509 34 474 10T394 -14Q367 -14 348 -5T320 20Q311 38 311 61Q311 84 321 126L348 229Q309 135 273 82T200 8T117 -14Q72 -14 50 7T27 68Q27 99 40 137L137 432Q143 450 143 461Q143
482 124 482Q108 482 93 465T61 403L43 355H24L49 428Q85 531 183 531Q274 531 274 448Q274 417 260 372L170 102Q161 75 161 59Q161 36 180 36Q210 36 251 95T333 251T407 461L422 517Q511 519 567 531L442 85Q436 64 436 52Q436 35 453 35Q472 35 487 53T517
114L536 165Z" />
<glyph unicode="v" glyph-name="v" horiz-adv-x="525" d="M424 350T397 385T369 463Q369 495 386 513T434 531Q470 531 486 501T501 416Q496 315 458 216T348 51T176 -14Q101 -14 68 20T35 105Q35 270 303 490Q279 487 261 476T217 444Q196 426 182 418T153 409Q140
409 122 419Q106 428 96 428Q82 428 74 418T56 380L48 353H29L51 426Q80 532 145 532Q157 532 166 529T189 517Q204 508 216 504T247 499Q288 499 320 520L330 539L351 529Q277 422 233 307T189 105Q189 67 200 49T234 31Q293 31 342 77T423 192T467 329Q424 350
397 385Z" />
<glyph unicode="w" glyph-name="w" horiz-adv-x="680" d="M629 331T629 318Q629 237 603 161T524 35T397 -14Q317 -14 283 41Q220 -14 136 -14Q71 -14 37 20T2 108Q2 167 45 227T156 347T335 489Q310 485 290 474T243 443Q221 426 206 418T175 409Q161 409 143
419Q129 428 117 428Q104 428 95 417T78 380L69 353H50L72 426Q90 483 114 505T167 528Q179 528 189 525T213 515Q216 514 228 509T253 502T281 499Q322 499 358 520L369 539L390 529Q286 423 221 310T155 104Q155 66 167 48T206 30Q241 30 276 56Q264 83 264 123Q264
181 290 236T355 325T425 359Q463 359 463 293Q463 239 442 188T377 93Q402 47 453 47Q503 47 538 86T590 186T607 308Q607 330 606 340Q550 362 513 393T475 473Q475 497 491 514T534 531Q580 531 601 478T627 357Q629 331 629 318ZM410 337T395 313T370 251T360
172Q360 139 369 112Q402 150 421 197T440 290Q440 337 423 337Q410 337 395 313Z" />
<glyph unicode="x" glyph-name="x" horiz-adv-x="565" d="M538 531T558 514T579 465Q579 434 558 414T504 393Q474 393 450 409T415 460Q371 410 339 327L366 84Q370 59 378 49T400 38Q416 38 430 56T461 124L474 161H493L468 88Q434 -14 334 -14Q287 -14 258
8T223 84L214 164Q181 93 143 47Q90 -14 32 -14Q-2 -14 -21 3T-41 49Q-41 82 -19 103T35 124Q94 124 122 57Q174 116 209 204L183 433Q179 457 171 466T148 475Q133 475 119 459T88 393L75 356H56L81 429Q101 487 137 509T219 531Q268 531 295 508T328 425L335
366Q361 426 396 470Q444 531 506 531Q538 531 558 514Z" />
<glyph unicode="y" glyph-name="y" horiz-adv-x="482" d="M468 531T468 440Q468 350 410 226T271 4Q220 -57 159 -104T32 -173Q-8 -188 -39 -188Q-71 -188 -89 -173T-108 -132Q-108 -105 -89 -88T-39 -70Q20 -70 68 -139Q140 -104 198 -47L120 431Q115 459 110
468T94 478Q83 478 73 463T47 404L29 355H10L35 428Q55 485 85 508T158 531Q201 531 225 507T258 423L304 80Q348 143 380 208T427 334Q386 356 360 390T335 463Q335 494 353 512T402 531Q468 531 468 440Z" />
<glyph unicode="z" glyph-name="z" horiz-adv-x="464" d="M59 68T101 96Q138 119 157 129T197 139Q213 139 225 135T256 122Q270 114 280 111T303 107Q321 107 330 117T340 142Q340 164 324 178T282 199L288 214Q342 202 368 176T394 107Q394 56 362 23T267 -11Q239
-11 217 -4T169 16Q138 30 117 36T68 43Q39 43 18 34T-23 0H-52L434 467Q408 455 353 419Q318 395 295 383T250 371Q233 371 221 375T192 388Q178 396 168 399T145 403Q127 403 118 394T108 368Q108 348 122 334T166 311L160 296Q54 321 54 400Q54 451 91 488T197
525Q225 525 246 519T295 499Q322 486 343 480T391 473Q421 473 441 482T483 516H512L33 56Q59 68 101 96Z" />
<glyph unicode="{" glyph-name="braceleft" horiz-adv-x="361" d="M111 -189T70 -161T28 -74Q28 -35 47 43Q80 176 80 227Q79 257 68 270T33 286H28L31 304H36Q68 307 90 328T130 400T173 547Q196 641 231 692T319 762T454 782L449 763Q414 762 395 749T359 692T317
547Q295 460 261 409T178 332T58 295Q139 277 173 242T207 148Q207 107 191 43Q162 -75 162 -115Q162 -146 175 -157T219 -169L214 -188Q111 -189 70 -161Z" />
<glyph unicode="|" glyph-name="bar" horiz-adv-x="369" d="M238 -195H150V858H238V-195Z" />
<glyph unicode="}" glyph-name="braceright" horiz-adv-x="361" d="M251 783T292 755T334 668Q334 629 315 551Q282 418 282 367Q283 337 294 324T329 308H334L331 290H326Q294 287 272 266T232 194T189 47Q166 -47 131 -98T43 -168T-92 -188L-87 -169Q-52 -168
-33 -155T3 -98T45 47Q67 134 101 185T184 262T304 299Q223 317 189 352T155 446Q155 487 171 551Q200 669 200 709Q200 740 187 751T143 763L148 782Q251 783 292 755Z" />
<glyph unicode="~" glyph-name="asciitilde" horiz-adv-x="645" d="M366 213T339 223T277 254Q241 273 218 282T165 291Q99 291 63 233L49 238Q77 310 130 351T250 393Q285 393 311 383T374 353Q409 334 432 325T486 315Q552 315 588 373L602 368Q574 296 521
255T401 213Q366 213 339 223Z" />
<glyph unicode="&#xa0;" glyph-name="uni00A0" horiz-adv-x="255" />
<glyph unicode="&#xa1;" glyph-name="exclamdown" horiz-adv-x="296" d="M112 477T140 504T209 531Q241 531 259 515T277 470Q277 434 248 406T179 377Q147 377 130 393T112 437Q112 477 140 504ZM143 249T138 183T130 27Q128 -54 125 -91Q123 -138 98 -163T27
-188Q-8 -188 -26 -171T-42 -120Q-39 -87 -22 -47T34 66Q77 150 101 204T142 319L160 316Q143 249 138 183Z" />
<glyph unicode="&#xa2;" glyph-name="cent" horiz-adv-x="477" d="M316 421T343 451T407 491Q390 511 359 511Q342 511 323 503L200 47Q214 40 235 40Q307 40 367 128L387 120Q353 66 302 29T184 -14L139 -181H117L162 -14Q92 -12 51 27T9 140Q9 219 46 304T152
452T308 528L356 708H378L330 530Q337 531 350 531Q405 531 438 504T472 435Q472 408 459 382T423 340T373 324Q348 324 332 340T316 382Q316 421 343 451ZM297 488Q259 461 228 407T178 283T159 140Q159 86 182 61L297 488Z" />
<glyph unicode="&#xa3;" glyph-name="sterling" horiz-adv-x="672" d="M488 643T509 670T566 705Q564 712 552 716T524 721Q465 721 433 678T377 548L343 417H479L473 397H337L332 376Q323 342 311 317H452L446 297H301Q282 264 259 240T197 183Q162 153 137 128T90
71Q184 152 275 152Q308 152 333 147T395 130Q421 121 438 117T474 113Q496 113 511 124T526 156Q526 198 456 212L461 230Q516 221 552 194T589 120Q589 84 569 53T514 4T435 -14Q397 -14 369 -4T299 28Q260 49 231 59T165 70Q123 70 83 55Q63 21 37 4T-15 -14Q-22
-14 -25 -12T-28 -4Q-28 15 -2 37T71 69Q91 109 107 151T142 258L152 297H55L61 317H158L179 397H82L88 417H184L190 439Q226 574 309 655T528 736Q582 736 614 710T646 645Q646 601 620 573T555 544Q524 544 506 560T488 607Q488 643 509 670Z" />
<glyph unicode="&#xa4;" glyph-name="currency" horiz-adv-x="658" d="M141 196Q113 243 113 300Q113 354 142 404L83 462L168 547L226 489Q272 518 331 518Q388 518 435 489L494 548L579 463L520 404Q549 354 549 300Q549 245 520 195L578 137L493 52L434 111Q387
83 331 83Q271 83 227 111L169 53L83 138L141 196ZM217 246T250 212T332 177Q380 177 413 211T447 300Q447 354 414 389T332 424Q284 424 251 389T217 300Q217 246 250 212Z" />
<glyph unicode="&#xa5;" glyph-name="yen" horiz-adv-x="776" d="M783 722T808 698T833 636Q833 598 808 572T742 546Q709 546 691 562T673 607Q674 640 695 664T749 699Q744 703 732 703Q702 703 672 680Q627 648 570 557T467 331L458 297H591L586 277H453L438
217H569L564 197H433L410 106Q404 82 404 66Q404 40 421 31T481 20L476 0Q419 3 304 3Q196 3 143 0L148 20Q184 22 202 28T231 51T251 106L274 197H133L138 217H279L294 277H155L160 297H299L305 321Q289 458 261 553T190 648Q173 648 163 636T144 601L123 538H101L126
615Q145 672 180 697T267 722Q332 722 369 682T425 567T458 365Q491 459 533 534T622 660Q679 722 740 722Q783 722 808 698Z" />
<glyph unicode="&#xa6;" glyph-name="brokenbar" horiz-adv-x="372" d="M240 384H152V858H240V384ZM152 326H240V-195H152V326Z" />
<glyph unicode="&#xa7;" glyph-name="section" horiz-adv-x="576" d="M434 680T455 704T506 740Q501 751 480 757T434 763Q379 763 340 731T300 638Q300 604 320 579T391 510L414 491Q461 451 485 428T524 378T539 321Q539 201 374 122Q420 71 420 18Q420 -45
379 -92T275 -163T146 -188Q87 -188 38 -168T-12 -97Q-12 -59 15 -31T82 -3Q110 -3 126 -17T142 -54Q142 -85 122 -109T71 -146Q75 -156 97 -162T143 -169Q198 -169 237 -136T276 -43Q276 -8 255 18T184 85Q178 89 173 94T162 103Q116 142 92 165T53 215T38 273Q38
393 202 472Q157 523 157 576Q157 639 197 686T301 757T431 782Q488 782 539 761T590 691Q590 653 563 625T495 597Q466 597 450 612T434 652Q434 680 455 704ZM417 230T417 241Q417 274 391 304T296 388Q239 434 217 457Q158 413 158 357Q158 324 185 292T280
206Q322 173 360 137Q384 154 398 175T416 225Q417 230 417 241Z" />
<glyph unicode="&#xa8;" glyph-name="dieresis" horiz-adv-x="480" d="M157 714T182 737T243 760Q274 760 291 742T308 694Q308 655 282 633T221 610Q189 610 173 628T157 676Q157 714 182 737ZM384 714T409 737T470 760Q501 760 518 742T535 694Q535 655 510
633T449 610Q417 610 401 628T384 676Q384 714 409 737Z" />
<glyph unicode="&#xa9;" glyph-name="copyright" horiz-adv-x="911" d="M81 492T134 583T279 728T479 782Q587 782 678 729T823 584T877 384Q877 276 824 185T679 40T479 -14Q371 -14 280 39T135 184T81 384Q81 492 134 583ZM121 285T169 201T299 68T479 18Q576
18 658 67T789 201T837 384Q837 483 789 567T659 700T479 750Q382 750 300 701T169 567T121 384Q121 285 169 201ZM620 176T668 276L686 269Q666 204 616 158T487 112Q383 112 319 179T254 382Q254 470 285 532T373 625T502 657Q573 657 627 625T682 533Q682 498
660 476T603 453Q568 453 547 473T526 528Q526 558 544 579T592 609Q582 620 563 627T522 634Q466 634 436 581T405 395Q405 279 442 228T537 176Q620 176 668 276Z" />
<glyph unicode="&#xaa;" glyph-name="ordfeminine" horiz-adv-x="532" d="M516 478H535L522 442Q507 399 478 380T405 360Q370 360 351 375T332 425Q332 443 336 462Q307 406 272 383T196 360Q149 360 124 384T99 453Q99 513 138 576T237 680T358 722Q396 722
400 687L407 713Q480 713 537 722L451 450Q446 433 446 425Q446 409 463 409Q492 409 507 453L516 478ZM278 407T308 448T360 548L392 660Q391 698 368 698Q342 698 310 662T255 570T232 458Q232 407 256 407Q278 407 308 448Z" />
<glyph unicode="&#xab;" glyph-name="guillemotleft" horiz-adv-x="586" d="M338 465T277 379T169 253Q200 216 228 133T261 -14H243Q191 67 137 131T19 247L22 259Q108 313 187 380T350 531H368Q338 465 277 379ZM533 448T479 369T382 253Q409 220 433 144T463
10H445Q395 85 346 143T238 247L241 259Q320 308 391 369T540 507H558Q533 448 479 369Z" />
<glyph unicode="&#xac;" glyph-name="logicalnot" horiz-adv-x="646" d="M95 370H596L537 165H501L551 340H86L95 370Z" />
<glyph unicode="&#xad;" glyph-name="uni00AD" horiz-adv-x="506" />
<glyph unicode="&#xae;" glyph-name="registered" horiz-adv-x="685" d="M474 782T538 745T639 643T677 503Q677 427 640 363T538 262T398 224Q322 224 258 261T157 363T119 503Q119 579 156 643T258 744T398 782Q474 782 538 745ZM463 256T517 289T603 379T635
503Q635 570 604 626T518 716T398 750Q333 750 279 717T193 627T161 503Q161 436 192 380T278 290T398 256Q463 256 517 289ZM567 364Q552 346 515 346Q483 346 467 356T446 389L431 462Q427 480 422 488T405 501T368 507V404Q368 381 372 375T391 367V352L328
353L262 352V367Q277 369 281 375T285 404V623Q285 646 281 652T262 661V676Q276 675 324 675L410 676Q532 676 532 597Q532 570 509 548T429 515Q475 511 493 498T518 457L533 392Q536 379 539 374T548 368Q555 368 559 374L567 364ZM378 661T373 656T368 633V524H380Q448
524 448 591Q448 626 435 643T394 661Q378 661 373 656Z" />
<glyph unicode="&#xaf;" glyph-name="overscore" horiz-adv-x="436" d="M493 687H157L163 712H499L493 687Z" />
<glyph unicode="&#xb0;" glyph-name="degree" horiz-adv-x="333" d="M312 820T347 787T383 700Q383 646 348 613T261 579Q211 579 176 612T140 700Q140 754 175 787T261 820Q312 820 347 787ZM299 598T329 625T359 700Q359 746 329 773T261 801Q224 801 194 774T164
700Q164 652 193 625T261 598Q299 598 329 625Z" />
<glyph unicode="&#xb1;" glyph-name="plusminus" horiz-adv-x="618" d="M-15 30H486L477 0H-24L-15 30ZM313 370L380 606H416L349 370H581L572 340H340L273 105H237L304 340H71L80 370H313Z" />
<glyph unicode="&#xb2;" glyph-name="uni00B2" horiz-adv-x="356" d="M343 754T367 740T392 698Q392 659 354 625T246 548Q205 522 194 514Q215 514 256 505Q262 504 283 500T317 496Q336 496 347 503T358 526Q358 536 354 544L371 551Q387 526 387 502Q387 472
363 453T294 433Q274 433 230 441Q178 451 143 451Q124 451 110 448T76 437L80 455Q93 464 113 477Q195 532 246 579T297 675Q297 716 247 716Q193 716 148 668L134 679Q162 711 205 732T302 754Q343 754 367 740Z" />
<glyph unicode="&#xb3;" glyph-name="uni00B3" horiz-adv-x="339" d="M348 754T373 741T398 700Q398 661 346 630T235 586Q296 585 332 568T368 512Q368 465 316 430T188 373T38 347V365Q95 370 149 389T237 442T272 520Q272 567 229 572Q210 562 197 562Q190
562 185 565T179 575Q179 594 223 592Q260 608 282 631T304 681Q304 700 293 709T261 718Q207 718 153 667L139 679Q166 708 210 731T306 754Q348 754 373 741Z" />
<glyph unicode="&#xb4;" glyph-name="acute" horiz-adv-x="296" d="M178 668T211 726Q234 764 246 782T274 816Q285 828 300 835T329 842Q350 842 365 827Q379 813 379 797Q379 771 350 742Q326 718 267 681Q197 636 147 599L137 609Q178 668 211 726Z" />
<glyph unicode="&#xb6;" glyph-name="paragraph" horiz-adv-x="708" d="M192 -13T116 51T40 229Q40 360 102 470T273 644T511 709Q547 709 609 707L691 706Q756 706 787 708L782 689Q736 687 717 672T687 621L544 76Q511 -49 440 -118T244 -188Q181 -188 143 -170T104
-113Q104 -80 127 -58T190 -36Q223 -36 243 -51T264 -92Q264 -140 211 -168Q220 -171 239 -171Q282 -171 307 -134T358 -13Q192 -13 116 51ZM393 246T384 173T374 64Q374 48 376 48Q401 142 456 350T539 656Q535 656 515 615T470 508T424 372Q355 372 292 368T188
359T146 351Q145 346 227 339T413 331Q393 246 384 173Z" />
<glyph unicode="&#xb7;" glyph-name="middot" horiz-adv-x="289" d="M54 287T82 314T151 341Q183 341 201 325T219 280Q219 244 190 216T121 187Q89 187 72 203T54 247Q54 287 82 314Z" />
<glyph unicode="&#xb8;" glyph-name="cedilla" horiz-adv-x="339" d="M83 -69Q113 -59 137 -59Q164 -59 180 -70T197 -101Q197 -145 148 -166T33 -188Q5 -188 -19 -182T-56 -168L-50 -153Q-48 -154 -32 -159T11 -164Q38 -164 63 -154T89 -118Q89 -107 82 -101T61
-95Q44 -95 30 -102L99 0H127L83 -69Z" />
<glyph unicode="&#xb9;" glyph-name="uni00B9" horiz-adv-x="268" d="M235 437H140L216 671Q210 668 180 656T107 634L112 653Q183 672 225 695T317 753H336L235 437Z" />
<glyph unicode="&#xba;" glyph-name="ordmasculine" horiz-adv-x="491" d="M105 532T135 588T223 683T359 722Q433 722 474 691T516 599Q516 550 486 494T398 400T262 361Q189 361 147 391T105 483Q105 532 135 588ZM325 704T296 663T249 559T231 437Q231 379
267 379Q297 379 325 420T372 524T390 646Q390 704 354 704Q325 704 296 663Z" />
<glyph unicode="&#xbb;" glyph-name="guillemotright" horiz-adv-x="585" d="M377 449T430 385T549 269L546 257Q459 202 379 136T217 -14H199Q229 52 290 138T398 263Q367 300 339 383T306 531H324Q377 449 430 385ZM173 431T221 373T329 269L326 257Q246 207
174 147T28 10H10Q35 69 89 148T184 263Q158 297 134 373T104 507H122Q173 431 221 373Z" />
<glyph unicode="&#xbc;" glyph-name="onequarter" horiz-adv-x="668" d="M735 811L-98 -55L-113 -42L720 824L735 811ZM235 437H140L216 671Q210 668 180 656T107 634L112 653Q183 672 225 695T317 753H336L235 437ZM425 67H477L460 8H408L381 -85H305L332 8H138L143
26L479 317H498L425 67ZM349 67L393 218L218 67H349Z" />
<glyph unicode="&#xbd;" glyph-name="onehalf" horiz-adv-x="621" d="M735 811L-98 -55L-113 -42L720 824L735 811ZM235 437H140L216 671Q210 668 180 656T107 634L112 653Q183 672 225 695T317 753H336L235 437ZM510 317T534 303T559 261Q559 222 521 188T413
111Q372 85 361 77Q382 77 423 68Q429 67 450 63T484 59Q503 59 514 66T525 89Q525 99 521 107L538 114Q554 89 554 65Q554 35 530 16T461 -4Q441 -4 397 4Q345 14 310 14Q291 14 277 11T243 0L247 18Q260 27 280 40Q362 95 413 142T464 238Q464 279 414 279Q360
279 315 231L301 242Q329 274 372 295T469 317Q510 317 534 303Z" />
<glyph unicode="&#xbe;" glyph-name="threequarters" horiz-adv-x="750" d="M835 811L2 -55L-13 -42L820 824L835 811ZM348 754T373 741T398 700Q398 661 346 630T235 586Q296 585 332 568T368 512Q368 465 316 430T188 373T38 347V365Q95 370 149 389T237 442T272
520Q272 567 229 572Q210 562 197 562Q190 562 185 565T179 575Q179 594 223 592Q260 608 282 631T304 681Q304 700 293 709T261 718Q207 718 153 667L139 679Q166 708 210 731T306 754Q348 754 373 741ZM525 67H577L560 8H508L481 -85H405L432 8H238L243 26L579
317H598L525 67ZM449 67L493 218L318 67H449Z" />
<glyph unicode="&#xbf;" glyph-name="questiondown" horiz-adv-x="488" d="M209 477T237 504T306 531Q338 531 356 515T374 470Q374 434 345 406T276 377Q244 377 227 393T209 437Q209 477 237 504ZM210 -166T236 -160T274 -141Q249 -138 232 -120T214 -77Q215
-49 237 -31T290 -12Q318 -12 337 -28T356 -74Q356 -131 291 -159T142 -188Q57 -188 7 -159T-44 -76Q-44 -47 -28 -23T19 26T112 92Q167 130 190 148T228 188T242 235Q242 261 226 278T176 296Q154 296 132 290T100 272Q119 271 134 256T150 219Q150 195 131 178T81
161Q56 161 41 174T26 212Q26 248 56 271T131 306T220 317Q292 317 338 290T385 213Q385 181 365 153T316 103T233 43Q159 -6 131 -34T103 -98Q103 -130 125 -148T187 -166Q210 -166 236 -160Z" />
<glyph unicode="&#xc0;" glyph-name="Agrave" horiz-adv-x="653" d="M536 51T550 36T582 20L578 0Q527 3 433 3Q331 3 283 0L287 20Q321 22 340 28T367 52T373 104L364 268H148L60 143Q28 98 28 69Q28 45 49 34T112 20L107 0Q23 3 -23 3Q-60 3 -92 0L-88 20Q-62
27 -38 50T25 126L442 713Q451 712 468 712Q486 712 493 713L533 84Q536 51 550 36ZM363 288L350 553L162 288H363ZM460 796T395 818Q388 821 365 829T324 849Q310 857 302 871T293 900Q293 914 300 925Q314 949 345 949Q366 949 383 938Q397 929 407 917T438 880Q443
874 466 845T523 782L515 771Q460 796 395 818Z" />
<glyph unicode="&#xc1;" glyph-name="Aacute" horiz-adv-x="653" d="M536 51T550 36T582 20L578 0Q527 3 433 3Q331 3 283 0L287 20Q321 22 340 28T367 52T373 104L364 268H148L60 143Q28 98 28 69Q28 45 49 34T112 20L107 0Q23 3 -23 3Q-60 3 -92 0L-88 20Q-62
27 -38 50T25 126L442 713Q451 712 468 712Q486 712 493 713L533 84Q536 51 550 36ZM363 288L350 553L162 288H363ZM492 815T522 843T558 876Q589 905 606 919T643 945Q662 956 686 956Q721 956 734 929Q739 920 739 909Q739 892 727 878T694 852Q677 843 652 834T598
817Q523 797 460 772L453 784Q492 815 522 843Z" />
<glyph unicode="&#xc2;" glyph-name="Acircumflex" horiz-adv-x="653" d="M536 51T550 36T582 20L578 0Q527 3 433 3Q331 3 283 0L287 20Q321 22 340 28T367 52T373 104L364 268H148L60 143Q28 98 28 69Q28 45 49 34T112 20L107 0Q23 3 -23 3Q-60 3 -92 0L-88
20Q-62 27 -38 50T25 126L442 713Q451 712 468 712Q486 712 493 713L533 84Q536 51 550 36ZM363 288L350 553L162 288H363ZM370 792T256 771L251 785Q334 811 406 852T522 940H540Q563 884 594 848T679 785L675 771Q610 782 567 795T474 830Q370 792 256 771Z"
/>
<glyph unicode="&#xc3;" glyph-name="Atilde" horiz-adv-x="653" d="M536 51T550 36T582 20L578 0Q527 3 433 3Q331 3 283 0L287 20Q321 22 340 28T367 52T373 104L364 268H148L60 143Q28 98 28 69Q28 45 49 34T112 20L107 0Q23 3 -23 3Q-60 3 -92 0L-88 20Q-62
27 -38 50T25 126L442 713Q451 712 468 712Q486 712 493 713L533 84Q536 51 550 36ZM363 288L350 553L162 288H363ZM472 927T495 917T547 887Q571 870 587 862T627 854Q649 854 667 867T704 912L722 907Q695 837 650 803T556 768Q520 768 497 778T445 809Q421 825
405 833T366 841Q344 841 326 828T289 783L271 788Q298 858 342 892T437 927Q472 927 495 917Z" />
<glyph unicode="&#xc4;" glyph-name="Adieresis" horiz-adv-x="653" d="M536 51T550 36T582 20L578 0Q527 3 433 3Q331 3 283 0L287 20Q321 22 340 28T367 52T373 104L364 268H148L60 143Q28 98 28 69Q28 45 49 34T112 20L107 0Q23 3 -23 3Q-60 3 -92 0L-88 20Q-62
27 -38 50T25 126L442 713Q451 712 468 712Q486 712 493 713L533 84Q536 51 550 36ZM363 288L350 553L162 288H363ZM291 871T316 894T377 917Q408 917 425 899T442 850Q442 811 416 789T355 766Q324 766 308 784T291 832Q291 871 316 894ZM531 871T556 894T617
917Q648 917 665 899T682 850Q682 811 656 789T595 766Q563 766 547 784T531 832Q531 871 556 894Z" />
<glyph unicode="&#xc5;" glyph-name="Aring" horiz-adv-x="653" d="M536 51T550 36T582 20L578 0Q527 3 433 3Q331 3 283 0L287 20Q321 22 340 28T367 52T373 104L364 268H148L60 143Q28 98 28 69Q28 45 49 34T112 20L107 0Q23 3 -23 3Q-60 3 -92 0L-88 20Q-62
27 -38 50T25 126L442 713Q451 712 468 712Q486 712 493 713L533 84Q536 51 550 36ZM363 288L350 553L162 288H363ZM539 937T567 914T595 852Q595 822 578 797T532 757T471 742Q429 742 403 765T376 828Q376 874 411 905T497 937Q539 937 567 914ZM512 763T540
788T569 851Q569 882 547 899T494 916Q457 916 430 890T403 828Q403 798 424 781T475 763Q512 763 540 788Z" />
<glyph unicode="&#xc6;" glyph-name="AE" horiz-adv-x="905" d="M889 705T952 708Q939 672 914 590Q905 560 901 528H879Q886 567 886 599Q886 646 865 665T798 685H735Q700 685 683 680T655 657T635 602L572 366H650Q678 366 697 381T727 418T753 478H775Q759
429 748 383L741 356Q730 315 715 234H693Q693 250 696 265Q698 287 698 296Q698 318 687 331T646 346H567L503 106Q494 68 494 57Q494 36 508 30T560 23H633Q681 23 712 39T766 93T812 200H834Q826 178 813 128Q796 69 787 0Q719 3 561 3Q346 3 237 0L241 20Q277
22 295 28T323 51T344 106L408 346H248L34 94Q19 76 12 66T5 47Q5 24 67 20V0Q40 3 -19 3Q-62 3 -86 0V20Q-55 22 0 84L484 654Q483 673 469 679T417 688L422 708Q488 706 528 706L585 773H611L554 706Q630 705 745 705Q889 705 952 708ZM413 366L476 602Q478 607
480 619L265 366H413Z" />
<glyph unicode="&#xc7;" glyph-name="Ccedilla" horiz-adv-x="693" d="M713 622T682 478H660Q668 524 668 557Q668 603 651 633Q616 698 533 698Q453 698 381 628T265 445T221 214Q221 115 256 66T356 16Q394 16 435 33T506 82Q532 110 551 144T596 240H618Q571
67 559 0H537Q540 21 540 34Q540 60 527 60Q519 60 507 51Q461 20 415 3T311 -14Q177 -14 110 50T43 234Q43 352 105 465T278 650T521 722Q577 722 609 705T670 657Q678 648 685 648Q703 648 725 708H746Q713 622 682 478ZM301 -63Q329 -53 359 -53Q390 -53 408
-65T426 -101Q426 -145 375 -166T256 -188Q222 -188 193 -182T147 -168L153 -153Q193 -164 234 -164Q267 -164 295 -154T324 -118Q324 -95 292 -95Q274 -95 257 -102L305 6H332L301 -63Z" />
<glyph unicode="&#xc8;" glyph-name="Egrave" horiz-adv-x="626" d="M610 705T671 708Q643 632 633 590Q628 568 620 528H598Q599 541 599 564Q599 631 574 658T488 685H457Q422 685 405 680T377 657T356 602L293 366H330Q380 366 414 401T467 486H490Q471 429
459 381L453 356Q441 309 424 226H402Q403 233 403 248Q403 346 319 346H288L224 106Q215 75 215 57Q215 36 229 30T281 23H318Q372 23 409 39T475 94T534 200H557Q546 171 535 128Q518 69 509 0Q441 3 282 3Q66 3 -43 0L-38 20Q-2 22 15 28T44 51T65 106L197 602Q205
636 205 650Q205 672 191 679T138 688L143 708Q252 705 468 705Q610 705 671 708ZM420 796T355 818Q348 821 325 829T284 849Q270 857 262 871T253 900Q253 914 260 925Q274 949 305 949Q326 949 343 938Q357 929 367 917T398 880Q403 874 426 845T483 782L475
771Q420 796 355 818Z" />
<glyph unicode="&#xc9;" glyph-name="Eacute" horiz-adv-x="626" d="M610 705T671 708Q643 632 633 590Q628 568 620 528H598Q599 541 599 564Q599 631 574 658T488 685H457Q422 685 405 680T377 657T356 602L293 366H330Q380 366 414 401T467 486H490Q471 429
459 381L453 356Q441 309 424 226H402Q403 233 403 248Q403 346 319 346H288L224 106Q215 75 215 57Q215 36 229 30T281 23H318Q372 23 409 39T475 94T534 200H557Q546 171 535 128Q518 69 509 0Q441 3 282 3Q66 3 -43 0L-38 20Q-2 22 15 28T44 51T65 106L197 602Q205
636 205 650Q205 672 191 679T138 688L143 708Q252 705 468 705Q610 705 671 708ZM452 815T482 843T518 876Q549 905 566 919T603 945Q622 956 646 956Q681 956 694 929Q699 920 699 909Q699 892 687 878T654 852Q637 843 612 834T558 817Q483 797 420 772L413
784Q452 815 482 843Z" />
<glyph unicode="&#xca;" glyph-name="Ecircumflex" horiz-adv-x="626" d="M610 705T671 708Q643 632 633 590Q628 568 620 528H598Q599 541 599 564Q599 631 574 658T488 685H457Q422 685 405 680T377 657T356 602L293 366H330Q380 366 414 401T467 486H490Q471
429 459 381L453 356Q441 309 424 226H402Q403 233 403 248Q403 346 319 346H288L224 106Q215 75 215 57Q215 36 229 30T281 23H318Q372 23 409 39T475 94T534 200H557Q546 171 535 128Q518 69 509 0Q441 3 282 3Q66 3 -43 0L-38 20Q-2 22 15 28T44 51T65 106L197
602Q205 636 205 650Q205 672 191 679T138 688L143 708Q252 705 468 705Q610 705 671 708ZM330 792T216 771L211 785Q294 811 366 852T482 940H500Q523 884 554 848T639 785L635 771Q570 782 527 795T434 830Q330 792 216 771Z" />
<glyph unicode="&#xcb;" glyph-name="Edieresis" horiz-adv-x="626" d="M610 705T671 708Q643 632 633 590Q628 568 620 528H598Q599 541 599 564Q599 631 574 658T488 685H457Q422 685 405 680T377 657T356 602L293 366H330Q380 366 414 401T467 486H490Q471
429 459 381L453 356Q441 309 424 226H402Q403 233 403 248Q403 346 319 346H288L224 106Q215 75 215 57Q215 36 229 30T281 23H318Q372 23 409 39T475 94T534 200H557Q546 171 535 128Q518 69 509 0Q441 3 282 3Q66 3 -43 0L-38 20Q-2 22 15 28T44 51T65 106L197
602Q205 636 205 650Q205 672 191 679T138 688L143 708Q252 705 468 705Q610 705 671 708ZM251 871T276 894T337 917Q368 917 385 899T402 850Q402 811 376 789T315 766Q284 766 268 784T251 832Q251 871 276 894ZM491 871T516 894T577 917Q608 917 625 899T642
850Q642 811 616 789T555 766Q523 766 507 784T491 832Q491 871 516 894Z" />
<glyph unicode="&#xcc;" glyph-name="Igrave" horiz-adv-x="390" d="M215 68T215 57Q215 36 229 29T283 20L279 0Q221 3 116 3Q11 3 -41 0L-36 20Q-1 22 16 28T44 51T65 106L197 602Q205 636 205 650Q205 672 191 679T138 688L143 708Q192 705 300 705Q399 705
464 708L459 688Q422 686 405 680T377 657T356 602L224 106Q215 68 215 57ZM308 796T243 818Q236 821 213 829T172 849Q158 857 150 871T141 900Q141 914 148 925Q162 949 193 949Q214 949 231 938Q245 929 255 917T286 880Q291 874 314 845T371 782L363 771Q308
796 243 818Z" />
<glyph unicode="&#xcd;" glyph-name="Iacute" horiz-adv-x="390" d="M215 68T215 57Q215 36 229 29T283 20L279 0Q221 3 116 3Q11 3 -41 0L-36 20Q-1 22 16 28T44 51T65 106L197 602Q205 636 205 650Q205 672 191 679T138 688L143 708Q192 705 300 705Q399 705
464 708L459 688Q422 686 405 680T377 657T356 602L224 106Q215 68 215 57ZM340 815T370 843T406 876Q437 905 454 919T491 945Q510 956 534 956Q569 956 582 929Q587 920 587 909Q587 892 575 878T542 852Q525 843 500 834T446 817Q371 797 308 772L301 784Q340
815 370 843Z" />
<glyph unicode="&#xce;" glyph-name="Icircumflex" horiz-adv-x="390" d="M215 68T215 57Q215 36 229 29T283 20L279 0Q221 3 116 3Q11 3 -41 0L-36 20Q-1 22 16 28T44 51T65 106L197 602Q205 636 205 650Q205 672 191 679T138 688L143 708Q192 705 300 705Q399
705 464 708L459 688Q422 686 405 680T377 657T356 602L224 106Q215 68 215 57ZM218 792T104 771L99 785Q182 811 254 852T370 940H388Q411 884 442 848T527 785L523 771Q458 782 415 795T322 830Q218 792 104 771Z" />
<glyph unicode="&#xcf;" glyph-name="Idieresis" horiz-adv-x="390" d="M215 68T215 57Q215 36 229 29T283 20L279 0Q221 3 116 3Q11 3 -41 0L-36 20Q-1 22 16 28T44 51T65 106L197 602Q205 636 205 650Q205 672 191 679T138 688L143 708Q192 705 300 705Q399
705 464 708L459 688Q422 686 405 680T377 657T356 602L224 106Q215 68 215 57ZM139 871T164 894T225 917Q256 917 273 899T290 850Q290 811 264 789T203 766Q172 766 156 784T139 832Q139 871 164 894ZM379 871T404 894T465 917Q496 917 513 899T530 850Q530 811
504 789T443 766Q411 766 395 784T379 832Q379 871 404 894Z" />
<glyph unicode="&#xd0;" glyph-name="Eth" horiz-adv-x="771" d="M756 354T700 246T533 69T263 0L214 1Q156 3 112 3Q15 3 -38 0L-35 20Q-1 22 16 28T44 51T65 106L196 602Q204 629 204 645Q204 667 190 677T138 688L141 708Q186 705 273 705H305Q410 708 454
708Q601 708 678 648T756 469Q756 354 700 246ZM365 18T440 89T554 271T594 501Q594 595 555 642T432 690Q406 690 394 684T373 660T355 604L224 104Q213 60 213 49Q213 32 224 25T263 18Q365 18 440 89ZM443 341H19L25 366H449L443 341Z" />
<glyph unicode="&#xd1;" glyph-name="Ntilde" horiz-adv-x="825" d="M882 754T907 730T933 669Q933 630 907 604T842 578Q809 578 791 594T773 638Q773 671 794 696T848 731Q844 735 832 735Q784 735 748 682Q704 616 656 450T547 -5H525L277 538Q234 326 196
181T121 -11Q99 -40 75 -57T14 -74Q-30 -74 -55 -50T-80 11Q-80 50 -55 76T11 102Q43 102 61 86T80 42Q80 9 59 -16T4 -51Q9 -55 21 -55Q72 -55 105 -1Q142 58 182 210T269 602Q275 631 275 647Q275 671 259 678T198 688L203 708Q235 705 292 705Q338 705 373 708L580
234Q664 593 730 690Q774 754 838 754Q882 754 907 730ZM529 927T552 917T604 887Q628 870 644 862T684 854Q706 854 724 867T761 912L779 907Q752 837 707 803T613 768Q577 768 554 778T502 809Q478 825 462 833T423 841Q401 841 383 828T346 783L328 788Q355
858 399 892T494 927Q529 927 552 917Z" />
<glyph unicode="&#xd2;" glyph-name="Ograve" horiz-adv-x="777" d="M42 339T99 455T261 646T495 722Q623 722 695 659T767 481Q767 368 709 253T547 62T313 -14Q185 -14 114 49T42 226Q42 339 99 455ZM418 704T355 632T253 446T214 213Q214 116 244 60T322 4Q390
4 453 76T555 262T594 495Q594 592 564 648T486 704Q418 704 355 632ZM484 796T419 818Q412 821 389 829T348 849Q334 857 326 871T317 900Q317 914 324 925Q338 949 369 949Q390 949 407 938Q421 929 431 917T462 880Q467 874 490 845T547 782L539 771Q484 796
419 818Z" />
<glyph unicode="&#xd3;" glyph-name="Oacute" horiz-adv-x="777" d="M42 339T99 455T261 646T495 722Q623 722 695 659T767 481Q767 368 709 253T547 62T313 -14Q185 -14 114 49T42 226Q42 339 99 455ZM418 704T355 632T253 446T214 213Q214 116 244 60T322 4Q390
4 453 76T555 262T594 495Q594 592 564 648T486 704Q418 704 355 632ZM516 815T546 843T582 876Q613 905 630 919T667 945Q686 956 710 956Q745 956 758 929Q763 920 763 909Q763 892 751 878T718 852Q701 843 676 834T622 817Q547 797 484 772L477 784Q516 815
546 843Z" />
<glyph unicode="&#xd4;" glyph-name="Ocircumflex" horiz-adv-x="777" d="M42 339T99 455T261 646T495 722Q623 722 695 659T767 481Q767 368 709 253T547 62T313 -14Q185 -14 114 49T42 226Q42 339 99 455ZM418 704T355 632T253 446T214 213Q214 116 244 60T322
4Q390 4 453 76T555 262T594 495Q594 592 564 648T486 704Q418 704 355 632ZM394 792T280 771L275 785Q358 811 430 852T546 940H564Q587 884 618 848T703 785L699 771Q634 782 591 795T498 830Q394 792 280 771Z" />
<glyph unicode="&#xd5;" glyph-name="Otilde" horiz-adv-x="777" d="M42 339T99 455T261 646T495 722Q623 722 695 659T767 481Q767 368 709 253T547 62T313 -14Q185 -14 114 49T42 226Q42 339 99 455ZM418 704T355 632T253 446T214 213Q214 116 244 60T322 4Q390
4 453 76T555 262T594 495Q594 592 564 648T486 704Q418 704 355 632ZM496 927T519 917T571 887Q595 870 611 862T651 854Q673 854 691 867T728 912L746 907Q719 837 674 803T580 768Q544 768 521 778T469 809Q445 825 429 833T390 841Q368 841 350 828T313 783L295
788Q322 858 366 892T461 927Q496 927 519 917Z" />
<glyph unicode="&#xd6;" glyph-name="Odieresis" horiz-adv-x="777" d="M42 339T99 455T261 646T495 722Q623 722 695 659T767 481Q767 368 709 253T547 62T313 -14Q185 -14 114 49T42 226Q42 339 99 455ZM418 704T355 632T253 446T214 213Q214 116 244 60T322
4Q390 4 453 76T555 262T594 495Q594 592 564 648T486 704Q418 704 355 632ZM315 871T340 894T401 917Q432 917 449 899T466 850Q466 811 440 789T379 766Q348 766 332 784T315 832Q315 871 340 894ZM555 871T580 894T641 917Q672 917 689 899T706 850Q706 811
680 789T619 766Q587 766 571 784T555 832Q555 871 580 894Z" />
<glyph unicode="&#xd7;" glyph-name="multiply" horiz-adv-x="496" d="M242 355L117 530L143 548L266 373L493 550L509 528L282 352L407 179L382 161L258 334L34 160L19 182L242 355Z" />
<glyph unicode="&#xd8;" glyph-name="Oslash" horiz-adv-x="777" d="M767 590T767 481Q767 368 709 253T547 62T313 -14Q195 -14 124 40L14 -73L-3 -59L107 55Q42 117 42 226Q42 339 99 455T261 646T495 722Q616 722 687 666L789 773L804 760L702 652Q767 590
767 481ZM418 704T355 632T253 446T214 213Q214 175 218 148L588 571Q578 634 551 669T486 704Q418 704 355 632ZM390 4T453 76T555 262T594 495Q594 514 592 544L223 120Q235 65 261 35T322 4Q390 4 453 76Z" />
<glyph unicode="&#xd9;" glyph-name="Ugrave" horiz-adv-x="694" d="M659 603T659 629Q659 658 642 670T583 688L588 708Q625 705 695 705Q750 705 783 708L778 688Q744 683 725 671T694 633T668 556L600 291Q564 153 502 79Q465 36 412 11T297 -14Q224 -14 175
6T102 65Q75 104 75 158Q75 206 97 288L180 602Q188 636 188 650Q188 672 174 679T121 688L127 708Q178 705 292 705Q385 705 447 708L441 688Q404 686 387 680T359 657T338 602L250 271Q226 183 226 125Q226 73 248 47T316 21Q421 21 481 89T574 280L643 544Q659
603 659 629ZM481 796T416 818Q409 821 386 829T345 849Q331 857 323 871T314 900Q314 914 321 925Q335 949 366 949Q387 949 404 938Q418 929 428 917T459 880Q464 874 487 845T544 782L536 771Q481 796 416 818Z" />
<glyph unicode="&#xda;" glyph-name="Uacute" horiz-adv-x="694" d="M659 603T659 629Q659 658 642 670T583 688L588 708Q625 705 695 705Q750 705 783 708L778 688Q744 683 725 671T694 633T668 556L600 291Q564 153 502 79Q465 36 412 11T297 -14Q224 -14 175
6T102 65Q75 104 75 158Q75 206 97 288L180 602Q188 636 188 650Q188 672 174 679T121 688L127 708Q178 705 292 705Q385 705 447 708L441 688Q404 686 387 680T359 657T338 602L250 271Q226 183 226 125Q226 73 248 47T316 21Q421 21 481 89T574 280L643 544Q659
603 659 629ZM513 815T543 843T579 876Q610 905 627 919T664 945Q683 956 707 956Q742 956 755 929Q760 920 760 909Q760 892 748 878T715 852Q698 843 673 834T619 817Q544 797 481 772L474 784Q513 815 543 843Z" />
<glyph unicode="&#xdb;" glyph-name="Ucircumflex" horiz-adv-x="694" d="M659 603T659 629Q659 658 642 670T583 688L588 708Q625 705 695 705Q750 705 783 708L778 688Q744 683 725 671T694 633T668 556L600 291Q564 153 502 79Q465 36 412 11T297 -14Q224 -14
175 6T102 65Q75 104 75 158Q75 206 97 288L180 602Q188 636 188 650Q188 672 174 679T121 688L127 708Q178 705 292 705Q385 705 447 708L441 688Q404 686 387 680T359 657T338 602L250 271Q226 183 226 125Q226 73 248 47T316 21Q421 21 481 89T574 280L643 544Q659
603 659 629ZM391 792T277 771L272 785Q355 811 427 852T543 940H561Q584 884 615 848T700 785L696 771Q631 782 588 795T495 830Q391 792 277 771Z" />
<glyph unicode="&#xdc;" glyph-name="Udieresis" horiz-adv-x="694" d="M659 603T659 629Q659 658 642 670T583 688L588 708Q625 705 695 705Q750 705 783 708L778 688Q744 683 725 671T694 633T668 556L600 291Q564 153 502 79Q465 36 412 11T297 -14Q224 -14
175 6T102 65Q75 104 75 158Q75 206 97 288L180 602Q188 636 188 650Q188 672 174 679T121 688L127 708Q178 705 292 705Q385 705 447 708L441 688Q404 686 387 680T359 657T338 602L250 271Q226 183 226 125Q226 73 248 47T316 21Q421 21 481 89T574 280L643 544Q659
603 659 629ZM312 871T337 894T398 917Q429 917 446 899T463 850Q463 811 437 789T376 766Q345 766 329 784T312 832Q312 871 337 894ZM552 871T577 894T638 917Q669 917 686 899T703 850Q703 811 677 789T616 766Q584 766 568 784T552 832Q552 871 577 894Z" />
<glyph unicode="&#xdd;" glyph-name="Yacute" horiz-adv-x="734" d="M765 722T790 698T815 636Q815 598 790 572T724 546Q691 546 673 562T655 607Q656 640 677 664T731 699Q726 703 714 703Q684 703 654 680Q609 648 552 557T449 331L392 106Q386 82 386 66Q386
40 403 31T463 20L458 0Q401 3 286 3Q178 3 125 0L130 20Q166 22 184 28T213 51T233 106L287 321Q271 458 243 553T172 648Q155 648 145 636T126 601L105 538H83L108 615Q127 672 162 697T249 722Q314 722 351 682T407 567T440 365Q473 459 515 534T604 660Q661
722 722 722Q765 722 790 698ZM506 815T536 843T572 876Q603 905 620 919T657 945Q676 956 700 956Q735 956 748 929Q753 920 753 909Q753 892 741 878T708 852Q691 843 666 834T612 817Q537 797 474 772L467 784Q506 815 536 843Z" />
<glyph unicode="&#xde;" glyph-name="Thorn" horiz-adv-x="661" d="M224 106Q215 68 215 57Q215 36 229 29T283 20L279 0Q221 3 116 3Q11 3 -41 0L-36 20Q-1 22 16 28T44 51T65 106L197 602Q205 636 205 650Q205 672 191 679T138 688L143 708Q192 705 300 705Q399
705 464 708L459 688Q422 686 405 680T377 657T356 602L345 562L424 563Q540 563 599 523T659 412Q659 334 607 272T461 175T246 140H233L224 106ZM351 544T340 543L238 160H256Q335 160 388 197T466 294T492 428Q492 483 465 513T383 544Q351 544 340 543Z" />
<glyph unicode="&#xdf;" glyph-name="germandbls" horiz-adv-x="608" d="M362 767T338 732T293 617L85 -174Q-1 -176 -59 -188L125 512Q150 606 185 664T277 752T417 782Q512 782 557 753T603 683Q603 645 577 617T492 546Q456 521 423 494Q393 470 384 454T374
421Q374 392 392 368T448 308L466 291Q510 248 530 218T550 148Q550 97 521 60T445 5T340 -14Q277 -14 239 15T201 93Q201 124 217 145T259 167Q287 167 302 142T318 82Q318 62 312 43T294 10Q306 6 319 6Q351 6 372 33T394 103Q394 134 386 163T359 229Q355 237
342 264T321 317T313 365Q313 399 327 419T376 473L407 503Q439 536 453 580T468 671Q468 720 449 743T398 767Q362 767 338 732Z" />
<glyph unicode="&#xe0;" glyph-name="agrave" horiz-adv-x="558" d="M495 162H514L489 89Q469 33 434 10T357 -14Q305 -14 283 17Q269 35 269 67Q269 93 278 126Q244 52 203 19T111 -14Q56 -14 28 18T-1 109Q-1 198 46 297T167 464T310 531Q337 531 353 515T373
467L387 516Q467 517 532 531L401 85Q396 68 396 57Q396 35 415 35Q450 35 477 114L495 162ZM362 428Q363 433 363 443Q363 468 355 481T329 494Q295 494 252 433T178 280T147 102Q147 69 153 55T175 40Q197 40 223 70T276 158T323 295L318 271L362 428ZM334 647T278
703Q261 720 247 735T223 766Q212 785 212 802Q212 815 218 826T236 844Q247 851 262 851Q279 851 293 843T317 819Q326 804 331 787T345 739Q360 670 385 606L373 599Q334 647 278 703Z" />
<glyph unicode="&#xe1;" glyph-name="aacute" horiz-adv-x="558" d="M495 162H514L489 89Q469 33 434 10T357 -14Q305 -14 283 17Q269 35 269 67Q269 93 278 126Q244 52 203 19T111 -14Q56 -14 28 18T-1 109Q-1 198 46 297T167 464T310 531Q337 531 353 515T373
467L387 516Q467 517 532 531L401 85Q396 68 396 57Q396 35 415 35Q450 35 477 114L495 162ZM362 428Q363 433 363 443Q363 468 355 481T329 494Q295 494 252 433T178 280T147 102Q147 69 153 55T175 40Q197 40 223 70T276 158T323 295L318 271L362 428ZM355 668T388
726Q411 764 423 782T451 816Q462 828 477 835T506 842Q527 842 542 827Q556 813 556 797Q556 771 527 742Q503 718 444 681Q374 636 324 599L314 609Q355 668 388 726Z" />
<glyph unicode="&#xe2;" glyph-name="acircumflex" horiz-adv-x="558" d="M495 162H514L489 89Q469 33 434 10T357 -14Q305 -14 283 17Q269 35 269 67Q269 93 278 126Q244 52 203 19T111 -14Q56 -14 28 18T-1 109Q-1 198 46 297T167 464T310 531Q337 531 353 515T373
467L387 516Q467 517 532 531L401 85Q396 68 396 57Q396 35 415 35Q450 35 477 114L495 162ZM362 428Q363 433 363 443Q363 468 355 481T329 494Q295 494 252 433T178 280T147 102Q147 69 153 55T175 40Q197 40 223 70T276 158T323 295L318 271L362 428ZM279 638T179
610L174 624Q246 655 309 708T413 820H431Q445 749 472 704T550 624L546 610Q484 623 442 641T360 684Q279 638 179 610Z" />
<glyph unicode="&#xe3;" glyph-name="atilde" horiz-adv-x="558" d="M495 162H514L489 89Q469 33 434 10T357 -14Q305 -14 283 17Q269 35 269 67Q269 93 278 126Q244 52 203 19T111 -14Q56 -14 28 18T-1 109Q-1 198 46 297T167 464T310 531Q337 531 353 515T373
467L387 516Q467 517 532 531L401 85Q396 68 396 57Q396 35 415 35Q450 35 477 114L495 162ZM362 428Q363 433 363 443Q363 468 355 481T329 494Q295 494 252 433T178 280T147 102Q147 69 153 55T175 40Q197 40 223 70T276 158T323 295L318 271L362 428ZM376 786T395
776T436 745Q454 729 467 721T499 713Q519 713 536 726T570 771L588 766Q562 696 521 662T434 627Q405 627 386 637T345 668Q327 684 314 692T282 700Q243 700 211 642L193 647Q219 717 260 751T347 786Q376 786 395 776Z" />
<glyph unicode="&#xe4;" glyph-name="adieresis" horiz-adv-x="558" d="M495 162H514L489 89Q469 33 434 10T357 -14Q305 -14 283 17Q269 35 269 67Q269 93 278 126Q244 52 203 19T111 -14Q56 -14 28 18T-1 109Q-1 198 46 297T167 464T310 531Q337 531 353 515T373
467L387 516Q467 517 532 531L401 85Q396 68 396 57Q396 35 415 35Q450 35 477 114L495 162ZM362 428Q363 433 363 443Q363 468 355 481T329 494Q295 494 252 433T178 280T147 102Q147 69 153 55T175 40Q197 40 223 70T276 158T323 295L318 271L362 428ZM205 714T230
737T291 760Q322 760 339 742T356 694Q356 655 330 633T269 610Q237 610 221 628T205 676Q205 714 230 737ZM432 714T457 737T518 760Q549 760 566 742T583 694Q583 655 558 633T497 610Q465 610 449 628T432 676Q432 714 457 737Z" />
<glyph unicode="&#xe5;" glyph-name="aring" horiz-adv-x="558" d="M495 162H514L489 89Q469 33 434 10T357 -14Q305 -14 283 17Q269 35 269 67Q269 93 278 126Q244 52 203 19T111 -14Q56 -14 28 18T-1 109Q-1 198 46 297T167 464T310 531Q337 531 353 515T373
467L387 516Q467 517 532 531L401 85Q396 68 396 57Q396 35 415 35Q450 35 477 114L495 162ZM362 428Q363 433 363 443Q363 468 355 481T329 494Q295 494 252 433T178 280T147 102Q147 69 153 55T175 40Q197 40 223 70T276 158T323 295L318 271L362 428ZM454 797T481
774T509 712Q509 682 492 657T446 617T385 602Q343 602 317 625T290 688Q290 734 325 765T411 797Q454 797 481 774ZM426 623T454 648T483 711Q483 742 461 759T408 776Q371 776 344 750T317 688Q317 658 338 641T389 623Q426 623 454 648Z" />
<glyph unicode="&#xe6;" glyph-name="ae" horiz-adv-x="735" d="M733 366T640 305T424 211Q418 177 418 143Q418 90 437 68T495 46Q526 46 564 65T639 128L657 120Q621 64 561 25T425 -14Q370 -14 331 9T276 77Q243 32 200 9T108 -14Q51 -14 23 17T-6 105Q-6 194
54 290T206 451T389 515Q440 515 461 480Q536 531 621 531Q671 531 702 510T733 448Q733 366 640 305ZM571 512T536 471T471 365T427 229Q505 262 536 289Q578 325 600 374T623 479Q623 512 599 512Q571 512 536 471ZM268 218T317 315T446 470Q432 489 406 489Q352
489 290 433T185 288T142 104Q142 73 155 57T189 40Q234 40 271 93Q268 108 268 127Q268 218 317 315Z" />
<glyph unicode="&#xe7;" glyph-name="ccedilla" horiz-adv-x="463" d="M309 511T263 458T187 318T158 140Q158 40 234 40Q306 40 366 128L386 120Q350 62 295 24T168 -14Q95 -14 52 25T8 140Q8 226 51 317T172 470T349 531Q404 531 437 504T471 435Q471 408 458
382T422 340T372 324Q347 324 331 340T315 382Q315 421 342 451T406 491Q389 511 358 511Q309 511 263 458ZM137 -69Q167 -59 191 -59Q218 -59 234 -70T251 -101Q251 -145 202 -166T87 -188Q59 -188 35 -182T-2 -168L4 -153Q6 -154 22 -159T65 -164Q92 -164 117
-154T143 -118Q143 -107 136 -101T115 -95Q98 -95 84 -102L153 0H181L137 -69Z" />
<glyph unicode="&#xe8;" glyph-name="egrave" horiz-adv-x="469" d="M468 369T375 307T159 211Q153 177 153 143Q153 90 172 68T230 46Q261 46 300 65T376 128L392 120Q356 64 296 25T160 -14Q91 -14 47 23T3 127Q3 216 51 311T182 468T364 531Q410 531 439 511T468
452Q468 369 375 307ZM313 512T276 471T208 365T162 230Q233 261 272 297Q312 333 335 379T358 479Q358 498 354 505T342 512Q313 512 276 471ZM312 647T256 703Q239 720 225 735T201 766Q190 785 190 802Q190 815 196 826T214 844Q225 851 240 851Q257 851 271
843T295 819Q304 804 309 787T323 739Q338 670 363 606L351 599Q312 647 256 703Z" />
<glyph unicode="&#xe9;" glyph-name="eacute" horiz-adv-x="469" d="M468 369T375 307T159 211Q153 177 153 143Q153 90 172 68T230 46Q261 46 300 65T376 128L392 120Q356 64 296 25T160 -14Q91 -14 47 23T3 127Q3 216 51 311T182 468T364 531Q410 531 439 511T468
452Q468 369 375 307ZM313 512T276 471T208 365T162 230Q233 261 272 297Q312 333 335 379T358 479Q358 498 354 505T342 512Q313 512 276 471ZM333 668T366 726Q389 764 401 782T429 816Q440 828 455 835T484 842Q505 842 520 827Q534 813 534 797Q534 771 505
742Q481 718 422 681Q352 636 302 599L292 609Q333 668 366 726Z" />
<glyph unicode="&#xea;" glyph-name="ecircumflex" horiz-adv-x="469" d="M468 369T375 307T159 211Q153 177 153 143Q153 90 172 68T230 46Q261 46 300 65T376 128L392 120Q356 64 296 25T160 -14Q91 -14 47 23T3 127Q3 216 51 311T182 468T364 531Q410 531 439
511T468 452Q468 369 375 307ZM313 512T276 471T208 365T162 230Q233 261 272 297Q312 333 335 379T358 479Q358 498 354 505T342 512Q313 512 276 471ZM257 638T157 610L152 624Q224 655 287 708T391 820H409Q423 749 450 704T528 624L524 610Q462 623 420 641T338
684Q257 638 157 610Z" />
<glyph unicode="&#xeb;" glyph-name="edieresis" horiz-adv-x="469" d="M468 369T375 307T159 211Q153 177 153 143Q153 90 172 68T230 46Q261 46 300 65T376 128L392 120Q356 64 296 25T160 -14Q91 -14 47 23T3 127Q3 216 51 311T182 468T364 531Q410 531 439
511T468 452Q468 369 375 307ZM313 512T276 471T208 365T162 230Q233 261 272 297Q312 333 335 379T358 479Q358 498 354 505T342 512Q313 512 276 471ZM183 714T208 737T269 760Q300 760 317 742T334 694Q334 655 308 633T247 610Q215 610 199 628T183 676Q183
714 208 737ZM410 714T435 737T496 760Q527 760 544 742T561 694Q561 655 536 633T475 610Q443 610 427 628T410 676Q410 714 435 737Z" />
<glyph unicode="&#xec;" glyph-name="igrave" horiz-adv-x="322" d="M145 450T145 462Q145 482 128 482Q109 482 94 464T63 403L44 352H25L52 428Q89 531 191 531Q237 531 258 508T279 449Q279 423 269 391L163 85Q157 67 157 56Q157 35 177 35Q193 35 208 52T240
114L258 162H277L252 89Q216 -14 117 -14Q71 -14 49 7T26 68Q26 102 41 145L139 432Q145 450 145 462ZM187 647T131 703Q114 720 100 735T76 766Q65 785 65 802Q65 815 71 826T89 844Q100 851 115 851Q132 851 146 843T170 819Q179 804 184 787T198 739Q213 670
238 606L226 599Q187 647 131 703Z" />
<glyph unicode="&#xed;" glyph-name="iacute" horiz-adv-x="322" d="M145 450T145 462Q145 482 128 482Q109 482 94 464T63 403L44 352H25L52 428Q89 531 191 531Q237 531 258 508T279 449Q279 423 269 391L163 85Q157 67 157 56Q157 35 177 35Q193 35 208 52T240
114L258 162H277L252 89Q216 -14 117 -14Q71 -14 49 7T26 68Q26 102 41 145L139 432Q145 450 145 462ZM208 668T241 726Q264 764 276 782T304 816Q315 828 330 835T359 842Q380 842 395 827Q409 813 409 797Q409 771 380 742Q356 718 297 681Q227 636 177 599L167
609Q208 668 241 726Z" />
<glyph unicode="&#xee;" glyph-name="icircumflex" horiz-adv-x="322" d="M145 450T145 462Q145 482 128 482Q109 482 94 464T63 403L44 352H25L52 428Q89 531 191 531Q237 531 258 508T279 449Q279 423 269 391L163 85Q157 67 157 56Q157 35 177 35Q193 35 208
52T240 114L258 162H277L252 89Q216 -14 117 -14Q71 -14 49 7T26 68Q26 102 41 145L139 432Q145 450 145 462ZM132 638T32 610L27 624Q99 655 162 708T266 820H284Q298 749 325 704T403 624L399 610Q337 623 295 641T213 684Q132 638 32 610Z" />
<glyph unicode="&#xef;" glyph-name="idieresis" horiz-adv-x="322" d="M145 450T145 462Q145 482 128 482Q109 482 94 464T63 403L44 352H25L52 428Q89 531 191 531Q237 531 258 508T279 449Q279 423 269 391L163 85Q157 67 157 56Q157 35 177 35Q193 35 208
52T240 114L258 162H277L252 89Q216 -14 117 -14Q71 -14 49 7T26 68Q26 102 41 145L139 432Q145 450 145 462ZM58 714T83 737T144 760Q175 760 192 742T209 694Q209 655 183 633T122 610Q90 610 74 628T58 676Q58 714 83 737ZM285 714T310 737T371 760Q402 760
419 742T436 694Q436 655 411 633T350 610Q318 610 302 628T285 676Q285 714 310 737Z" />
<glyph unicode="&#xf0;" glyph-name="eth" horiz-adv-x="528" d="M432 624T465 551T498 390Q498 294 460 201T348 47T174 -14Q100 -14 56 26T12 151Q12 231 48 319T152 468T307 528Q329 528 344 522Q331 594 299 647L129 572L123 590L289 663Q249 722 180 765L192
782Q287 749 355 693L506 760L512 742L370 680Q432 624 465 551ZM233 6T270 71T329 234T352 421Q352 461 347 503Q330 508 316 508Q271 508 235 440T178 270T158 77Q158 37 166 22T192 6Q233 6 270 71Z" />
<glyph unicode="&#xf1;" glyph-name="ntilde" horiz-adv-x="603" d="M559 162L534 89Q498 -14 400 -14Q344 -14 320 19Q307 38 307 66Q307 98 323 145L413 415Q422 442 422 458Q422 481 403 481Q373 481 331 420T245 260T170 50L157 0H16L137 432Q143 450 143
464Q143 482 126 482Q107 482 93 465T62 403L43 352H24L51 428Q70 483 102 507T180 531Q266 531 266 449Q266 421 258 391L227 270Q268 372 305 428T381 508T467 531Q557 531 557 451Q557 421 544 380L446 85Q440 67 440 56Q440 35 459 35Q475 35 490 52T522 114L540
162H559ZM373 786T392 776T433 745Q451 729 464 721T496 713Q516 713 533 726T567 771L585 766Q559 696 518 662T431 627Q402 627 383 637T342 668Q324 684 311 692T279 700Q240 700 208 642L190 647Q216 717 257 751T344 786Q373 786 392 776Z" />
<glyph unicode="&#xf2;" glyph-name="ograve" horiz-adv-x="529" d="M12 233T49 322T160 471T336 531Q414 531 456 489T498 366Q498 284 461 195T350 46T174 -14Q96 -14 54 28T12 151Q12 233 49 322ZM294 511T250 440T176 266T146 74Q146 38 154 22T180 6Q217
6 260 75T334 246T364 441Q364 480 356 495T331 511Q294 511 250 440ZM324 647T268 703Q251 720 237 735T213 766Q202 785 202 802Q202 815 208 826T226 844Q237 851 252 851Q269 851 283 843T307 819Q316 804 321 787T335 739Q350 670 375 606L363 599Q324 647
268 703Z" />
<glyph unicode="&#xf3;" glyph-name="oacute" horiz-adv-x="529" d="M12 233T49 322T160 471T336 531Q414 531 456 489T498 366Q498 284 461 195T350 46T174 -14Q96 -14 54 28T12 151Q12 233 49 322ZM294 511T250 440T176 266T146 74Q146 38 154 22T180 6Q217
6 260 75T334 246T364 441Q364 480 356 495T331 511Q294 511 250 440ZM345 668T378 726Q401 764 413 782T441 816Q452 828 467 835T496 842Q517 842 532 827Q546 813 546 797Q546 771 517 742Q493 718 434 681Q364 636 314 599L304 609Q345 668 378 726Z" />
<glyph unicode="&#xf4;" glyph-name="ocircumflex" horiz-adv-x="529" d="M12 233T49 322T160 471T336 531Q414 531 456 489T498 366Q498 284 461 195T350 46T174 -14Q96 -14 54 28T12 151Q12 233 49 322ZM294 511T250 440T176 266T146 74Q146 38 154 22T180 6Q217
6 260 75T334 246T364 441Q364 480 356 495T331 511Q294 511 250 440ZM269 638T169 610L164 624Q236 655 299 708T403 820H421Q435 749 462 704T540 624L536 610Q474 623 432 641T350 684Q269 638 169 610Z" />
<glyph unicode="&#xf5;" glyph-name="otilde" horiz-adv-x="529" d="M12 233T49 322T160 471T336 531Q414 531 456 489T498 366Q498 284 461 195T350 46T174 -14Q96 -14 54 28T12 151Q12 233 49 322ZM294 511T250 440T176 266T146 74Q146 38 154 22T180 6Q217
6 260 75T334 246T364 441Q364 480 356 495T331 511Q294 511 250 440ZM366 786T385 776T426 745Q444 729 457 721T489 713Q509 713 526 726T560 771L578 766Q552 696 511 662T424 627Q395 627 376 637T335 668Q317 684 304 692T272 700Q233 700 201 642L183 647Q209
717 250 751T337 786Q366 786 385 776Z" />
<glyph unicode="&#xf6;" glyph-name="odieresis" horiz-adv-x="529" d="M12 233T49 322T160 471T336 531Q414 531 456 489T498 366Q498 284 461 195T350 46T174 -14Q96 -14 54 28T12 151Q12 233 49 322ZM294 511T250 440T176 266T146 74Q146 38 154 22T180 6Q217
6 260 75T334 246T364 441Q364 480 356 495T331 511Q294 511 250 440ZM195 714T220 737T281 760Q312 760 329 742T346 694Q346 655 320 633T259 610Q227 610 211 628T195 676Q195 714 220 737ZM422 714T447 737T508 760Q539 760 556 742T573 694Q573 655 548 633T487
610Q455 610 439 628T422 676Q422 714 447 737Z" />
<glyph unicode="&#xf7;" glyph-name="divide" horiz-adv-x="636" d="M334 510T357 532T407 554Q426 554 437 543T449 514Q449 486 426 465T375 444Q356 444 345 455T334 483Q334 510 357 532ZM87 370H588L579 340H78L87 370ZM251 222T274 244T324 266Q343 266
354 255T366 226Q366 198 343 177T292 155Q274 155 263 166T251 195Q251 222 274 244Z" />
<glyph unicode="&#xf8;" glyph-name="oslash" horiz-adv-x="529" d="M498 465T498 366Q498 284 461 195T350 46T174 -14Q128 -14 95 1L35 -82L20 -72L78 9Q12 49 12 151Q12 233 49 322T160 471T336 531Q385 531 418 515L478 600L493 591L434 506Q498 465 498 366ZM295
511T253 445T181 281T146 95L364 450Q363 484 355 497T331 511Q295 511 253 445ZM215 6T256 69T328 228T363 415L146 59Q148 31 156 19T180 6Q215 6 256 69Z" />
<glyph unicode="&#xf9;" glyph-name="ugrave" horiz-adv-x="597" d="M536 165H555L528 89Q509 34 474 10T394 -14Q367 -14 348 -5T320 20Q311 38 311 61Q311 84 321 126L348 229Q309 135 273 82T200 8T117 -14Q72 -14 50 7T27 68Q27 99 40 137L137 432Q143 450
143 461Q143 482 124 482Q108 482 93 465T61 403L43 355H24L49 428Q85 531 183 531Q274 531 274 448Q274 417 260 372L170 102Q161 75 161 59Q161 36 180 36Q210 36 251 95T333 251T407 461L422 517Q511 519 567 531L442 85Q436 64 436 52Q436 35 453 35Q472 35
487 53T517 114L536 165ZM316 647T260 703Q243 720 229 735T205 766Q194 785 194 802Q194 815 200 826T218 844Q229 851 244 851Q261 851 275 843T299 819Q308 804 313 787T327 739Q342 670 367 606L355 599Q316 647 260 703Z" />
<glyph unicode="&#xfa;" glyph-name="uacute" horiz-adv-x="597" d="M536 165H555L528 89Q509 34 474 10T394 -14Q367 -14 348 -5T320 20Q311 38 311 61Q311 84 321 126L348 229Q309 135 273 82T200 8T117 -14Q72 -14 50 7T27 68Q27 99 40 137L137 432Q143 450
143 461Q143 482 124 482Q108 482 93 465T61 403L43 355H24L49 428Q85 531 183 531Q274 531 274 448Q274 417 260 372L170 102Q161 75 161 59Q161 36 180 36Q210 36 251 95T333 251T407 461L422 517Q511 519 567 531L442 85Q436 64 436 52Q436 35 453 35Q472 35
487 53T517 114L536 165ZM337 668T370 726Q393 764 405 782T433 816Q444 828 459 835T488 842Q509 842 524 827Q538 813 538 797Q538 771 509 742Q485 718 426 681Q356 636 306 599L296 609Q337 668 370 726Z" />
<glyph unicode="&#xfb;" glyph-name="ucircumflex" horiz-adv-x="597" d="M536 165H555L528 89Q509 34 474 10T394 -14Q367 -14 348 -5T320 20Q311 38 311 61Q311 84 321 126L348 229Q309 135 273 82T200 8T117 -14Q72 -14 50 7T27 68Q27 99 40 137L137 432Q143
450 143 461Q143 482 124 482Q108 482 93 465T61 403L43 355H24L49 428Q85 531 183 531Q274 531 274 448Q274 417 260 372L170 102Q161 75 161 59Q161 36 180 36Q210 36 251 95T333 251T407 461L422 517Q511 519 567 531L442 85Q436 64 436 52Q436 35 453 35Q472
35 487 53T517 114L536 165ZM261 638T161 610L156 624Q228 655 291 708T395 820H413Q427 749 454 704T532 624L528 610Q466 623 424 641T342 684Q261 638 161 610Z" />
<glyph unicode="&#xfc;" glyph-name="udieresis" horiz-adv-x="597" d="M536 165H555L528 89Q509 34 474 10T394 -14Q367 -14 348 -5T320 20Q311 38 311 61Q311 84 321 126L348 229Q309 135 273 82T200 8T117 -14Q72 -14 50 7T27 68Q27 99 40 137L137 432Q143
450 143 461Q143 482 124 482Q108 482 93 465T61 403L43 355H24L49 428Q85 531 183 531Q274 531 274 448Q274 417 260 372L170 102Q161 75 161 59Q161 36 180 36Q210 36 251 95T333 251T407 461L422 517Q511 519 567 531L442 85Q436 64 436 52Q436 35 453 35Q472
35 487 53T517 114L536 165ZM187 714T212 737T273 760Q304 760 321 742T338 694Q338 655 312 633T251 610Q219 610 203 628T187 676Q187 714 212 737ZM414 714T439 737T500 760Q531 760 548 742T565 694Q565 655 540 633T479 610Q447 610 431 628T414 676Q414 714
439 737Z" />
<glyph unicode="&#xfd;" glyph-name="yacute" horiz-adv-x="482" d="M468 531T468 440Q468 350 410 226T271 4Q220 -57 159 -104T32 -173Q-8 -188 -39 -188Q-71 -188 -89 -173T-108 -132Q-108 -105 -89 -88T-39 -70Q20 -70 68 -139Q140 -104 198 -47L120 431Q115
459 110 468T94 478Q83 478 73 463T47 404L29 355H10L35 428Q55 485 85 508T158 531Q201 531 225 507T258 423L304 80Q348 143 380 208T427 334Q386 356 360 390T335 463Q335 494 353 512T402 531Q468 531 468 440ZM300 668T333 726Q356 764 368 782T396 816Q407
828 422 835T451 842Q472 842 487 827Q501 813 501 797Q501 771 472 742Q448 718 389 681Q319 636 269 599L259 609Q300 668 333 726Z" />
<glyph unicode="&#xfe;" glyph-name="thorn" horiz-adv-x="584" d="M491 531T522 492T554 377Q554 295 517 204T412 49T255 -14Q227 -14 203 -5T165 20L138 -75Q132 -96 132 -111Q132 -139 152 -149T215 -160L209 -181L184 -180Q79 -177 51 -177Q18 -177 -90 -181L-84
-160Q-48 -160 -32 -147T-6 -98L176 552Q148 490 111 440T22 337L11 350Q57 399 86 434T144 522T203 650L236 767Q317 773 385 795L272 396Q307 467 345 499T430 531Q491 531 522 492ZM263 15T307 75T380 225T408 395Q408 442 400 460T375 478Q347 478 311 431T247
311L170 38Q187 15 215 15Q263 15 307 75Z" />
<glyph unicode="&#xff;" glyph-name="ydieresis" horiz-adv-x="482" d="M468 531T468 440Q468 350 410 226T271 4Q220 -57 159 -104T32 -173Q-8 -188 -39 -188Q-71 -188 -89 -173T-108 -132Q-108 -105 -89 -88T-39 -70Q20 -70 68 -139Q140 -104 198 -47L120 431Q115
459 110 468T94 478Q83 478 73 463T47 404L29 355H10L35 428Q55 485 85 508T158 531Q201 531 225 507T258 423L304 80Q348 143 380 208T427 334Q386 356 360 390T335 463Q335 494 353 512T402 531Q468 531 468 440ZM150 714T175 737T236 760Q267 760 284 742T301
694Q301 655 275 633T214 610Q182 610 166 628T150 676Q150 714 175 737ZM377 714T402 737T463 760Q494 760 511 742T528 694Q528 655 503 633T442 610Q410 610 394 628T377 676Q377 714 402 737Z" />
<glyph unicode="&#x2013;" glyph-name="endash" horiz-adv-x="690" d="M627 318L597 219H48L77 318H627Z" />
<glyph unicode="&#x2014;" glyph-name="emdash" horiz-adv-x="976" d="M911 318L881 219H47L76 318H911Z" />
<glyph unicode="&#x2018;" glyph-name="quoteleft" horiz-adv-x="274" d="M121 589T161 644T270 730L275 714Q229 691 200 656T167 579Q194 608 229 608Q259 608 275 594T291 554Q291 513 261 484T187 454Q155 454 138 472T121 526Q121 589 161 644Z" />
<glyph unicode="&#x2019;" glyph-name="quoteright" horiz-adv-x="269" d="M307 601T267 546T158 460L153 476Q199 499 228 534T261 611Q234 582 199 582Q169 582 153 596T137 636Q137 677 167 706T241 736Q273 736 290 718T307 664Q307 601 267 546Z" />
<glyph unicode="&#x201a;" glyph-name="quotesinglbase" horiz-adv-x="287" d="M167 5T127 -50T18 -136L13 -120Q59 -97 88 -62T121 15Q94 -14 59 -14Q29 -14 13 0T-3 40Q-3 81 27 110T101 140Q133 140 150 122T167 68Q167 5 127 -50Z" />
<glyph unicode="&#x201c;" glyph-name="quotedblleft" horiz-adv-x="469" d="M318 590T358 645T467 731L472 715Q426 692 396 657T363 580Q392 609 426 609Q454 609 469 595T484 555Q484 514 455 485T384 455Q318 455 318 527Q318 590 358 645ZM121 590T161 645T270
731L275 715Q229 692 200 657T167 580Q194 609 229 609Q257 609 272 595T287 555Q287 514 258 485T187 455Q121 455 121 527Q121 590 161 645Z" />
<glyph unicode="&#x201d;" glyph-name="quotedblright" horiz-adv-x="463" d="M306 604T266 549T157 463L152 479Q198 502 228 537T261 614Q232 585 198 585Q170 585 155 599T140 639Q140 680 169 709T240 739Q306 739 306 667Q306 604 266 549ZM503 604T463 549T354
463L349 479Q395 502 424 537T457 614Q430 585 395 585Q367 585 352 599T337 639Q337 680 366 709T437 739Q503 739 503 667Q503 604 463 549Z" />
<glyph unicode="&#x201e;" glyph-name="quotedblbase" horiz-adv-x="480" d="M163 5T123 -50T14 -136L9 -120Q55 -97 85 -62T118 15Q89 -14 55 -14Q27 -14 12 0T-3 40Q-3 81 26 110T97 140Q163 140 163 68Q163 5 123 -50ZM360 5T320 -50T211 -136L206 -120Q252
-97 281 -62T314 15Q287 -14 252 -14Q224 -14 209 0T194 40Q194 81 223 110T294 140Q360 140 360 68Q360 5 320 -50Z" />
<glyph unicode="&#x2022;" glyph-name="bullet" horiz-adv-x="431" d="M60 276T82 312T140 370T218 392Q273 392 310 356T347 265Q347 223 325 187T267 129T189 107Q134 107 97 143T60 234Q60 276 82 312Z" />
<glyph unicode="&#x2039;" glyph-name="guilsinglleft" horiz-adv-x="384" d="M338 465T277 379T169 253Q200 216 228 133T261 -14H243Q191 67 137 131T19 247L22 259Q108 313 187 380T350 531H368Q338 465 277 379Z" />
<glyph unicode="&#x203a;" glyph-name="guilsinglright" horiz-adv-x="383" d="M175 449T228 385T347 269L344 257Q256 203 177 137T15 -14H-3Q29 53 89 139T196 263Q165 300 137 383T104 531H122Q175 449 228 385Z" />
</font>
</defs>
</svg>
